Торрент файл
скачать торрент магнет ссылка Добавлен: 15 июл 2017, 12:22
Размер: 2.42 ГБ
Сидеров: 25
Личеров: 3
Статус: (salma3)
Автор

СообщениеДобавлено: 15 июл 2017, 12:22 

Не в сети
Супермодератор
Аватара пользователя
Дата регистрации:
15 фев 2012, 16:44
Возраст: 28
Спасибо: 7203 / 2147
Сообщения: 64881
Год выпуска: 1999
Жанр: Триллер
Режиссер: Роуди Хэррингтон

В ролях: Кьюба Гудинг мл., Том Беренджер, Мариан Жан-Батист, Эрик Штольц, Марк Пеллегрино, Эшли Лоуренс, Кармен Ардженциано, Нат Адамс, Джереми Блэк, Дерек Брос, Адриан Колон, Тара Креспо, Анастасия Дрэйк, Рене Эстевез, Рон Гурал, Джим Ханна, Эрик Джеймс, Сонни Маскар, Локлин Манро, Майлс О’Брайн, Мариса Петроро, Роберт Питерс, Стефен Снедден

О фильме: Бывший адвокат Лоусон Рассел, решивший стать писателем, знакомится с рукописью своего соседа, где в деталях описываются пять различных убийств. Сосед внезапно умирает, и начинающий писатель решается издать чужое произведение под своим именем. Вышедшая книга сразу же становится бестселлером. Но вскоре становится ясно, что описанные преступления на самом деле имели место, и теперь Лоусон обвиняется в их совершении...



Выпущено: США,Crows Nest Films Inc, Franchise Pictures
Продолжительность: 01:41:18
Перевод: Профессиональный (многоголосый, закадровый), профессиональный (двухголосый, закадровый), авторский (одноголосый, закадровый)
Субтитры: Английские

Качество: WEBRip-AVC
Контейнер: MKV
Видео: AVC, 1024x576 (16:9), 23.976 fps, 2 645 Kbps (0.187 bit/pixel)
Аудио #1: AC-3, 48.0 KHz, 2 ch, 192 Kbps - профессиональный двухголосый (Рен-ТВ)
Аудио #2: AC-3, 48.0 KHz, 2 ch, 192 Kbps - профессиональный многоголосый (Студия «Инис» по заказу "Союз-Видео")
Аудио #3: AC-3, 48.0 KHz, 6 ch, 128 Kbps - авторский одноголосый (Сергей Визгунов)
Аудио #4: AC-3, 48.0 KHz, 6 ch, 128 Kbps - авторский одноголосый (Юрий Живов)
Аудио #5: AAC LC, 48.0 KHz, 2 ch, 126 kbps - оригинальная звуковая дорожка

Формат : Matroska
Версия формата : Version 2
Размер файла : 2,42 Гбайт
Продолжительность : 1 ч. 41 м.
Общий поток : 3413 Кбит/сек
Дата кодирования : UTC 2017-07-10 17:26:44
Программа кодирования : mkvmerge v5.3.0 ('I could have danced') built on Feb 9 2012 10:38:07
Библиотека кодирования : libebml v1.2.3 + libmatroska v1.3.0
Attachments : poster 2.jpg
Видео
Идентификатор : 1
Формат : AVC
Формат/Информация : Advanced Video Codec
Профиль формата : High@L4.1
Параметр CABAC формата : Да
Параметр ReFrames формата : 12 кадров
Идентификатор кодека : V_MPEG4/ISO/AVC
Продолжительность : 1 ч. 41 м.
Номинальный битрейт : 2645 Кбит/сек
Ширина : 1024 пикселя
Высота : 576 пикселей
Соотношение сторон : 16:9
Режим частоты кадров : Постоянный
Частота кадров : 23,976 (24000/1001) кадра/сек
Цветовое пространство : YUV
Субдискретизация насыщенности : 4:2:0
Битовая глубина : 8 бит
Тип развёртки : Прогрессивная
Бит/(Пиксели*Кадры) : 0.187
Библиотека кодирования : x264 core 146 r2538 121396c
Настройки программы : cabac=1 / ref=12 / deblock=1:-3:-3 / analyse=0x3:0x133 / me=umh / subme=11 / psy=1 / psy_rd=1.00:0.00 / mixed_ref=1 / me_range=32 / chroma_me=1 / trellis=2 / 8x8dct=1 / cqm=0 / deadzone=21,11 / fast_pskip=0 / chroma_qp_offset=-2 / threads=12 / lookahead_threads=3 / sliced_threads=0 / nr=0 / decimate=1 / interlaced=0 / bluray_compat=0 / constrained_intra=0 / bframes=11 / b_pyramid=2 / b_adapt=2 / b_bias=0 / direct=3 / weightb=1 / open_gop=0 / weightp=2 / keyint=240 / keyint_min=23 / scenecut=40 / intra_refresh=0 / rc=2pass / mbtree=0 / bitrate=2645 / ratetol=1.0 / qcomp=0.60 / qpmin=0 / qpmax=69 / qpstep=4 / cplxblur=20.0 / qblur=0.5 / ip_ratio=1.40 / pb_ratio=1.30 / aq=3:0.90
Язык : English
Default : Да
Forced : Нет
Аудио #1
Идентификатор : 2
Формат : AC-3
Формат/Информация : Audio Coding 3
Расширение режима : CM (complete main)
Параметр Endianness формата : Big
Идентификатор кодека : A_AC3
Продолжительность : 1 ч. 41 м.
Вид битрейта : Постоянный
Битрейт : 192 Кбит/сек
Каналы : 2 канала
Расположение каналов : Front: L R
Частота : 48,0 КГц
Частота кадров : 31,250 кадров/сек (1536 spf)
Битовая глубина : 16 бит
Метод сжатия : С потерями
Размер потока : 139 Мбайт (6%)
Заголовок : Профессиональный двухголосый (РенТВ)
Default : Нет
Forced : Нет
Аудио #2
Идентификатор : 3
Формат : AC-3
Формат/Информация : Audio Coding 3
Расширение режима : CM (complete main)
Параметр Endianness формата : Big
Идентификатор кодека : A_AC3
Продолжительность : 1 ч. 41 м.
Вид битрейта : Постоянный
Битрейт : 192 Кбит/сек
Каналы : 2 канала
Расположение каналов : Front: L R
Частота : 48,0 КГц
Частота кадров : 31,250 кадров/сек (1536 spf)
Битовая глубина : 16 бит
Метод сжатия : С потерями
Размер потока : 139 Мбайт (6%)
Заголовок : Профессиональный многоголосый (Студия Инис)
Default : Нет
Forced : Нет
Аудио #3
Идентификатор : 4
Формат : AC-3
Формат/Информация : Audio Coding 3
Расширение режима : CM (complete main)
Параметр Endianness формата : Big
Идентификатор кодека : A_AC3
Продолжительность : 1 ч. 41 м.
Вид битрейта : Постоянный
Битрейт : 128 Кбит/сек
Каналы : 6 каналов
Расположение каналов : Front: L C R, Side: L R, LFE
Частота : 48,0 КГц
Частота кадров : 31,250 кадров/сек (1536 spf)
Битовая глубина : 16 бит
Метод сжатия : С потерями
Размер потока : 92,8 Мбайт (4%)
Заголовок : Авторский (одноголосый закадровый) - Сергей Визгунов
Default : Нет
Forced : Нет
Аудио #4
Идентификатор : 5
Формат : AC-3
Формат/Информация : Audio Coding 3
Расширение режима : CM (complete main)
Параметр Endianness формата : Big
Идентификатор кодека : A_AC3
Продолжительность : 1 ч. 41 м.
Вид битрейта : Постоянный
Битрейт : 128 Кбит/сек
Каналы : 6 каналов
Расположение каналов : Front: L C R, Side: L R, LFE
Частота : 48,0 КГц
Частота кадров : 31,250 кадров/сек (1536 spf)
Битовая глубина : 16 бит
Метод сжатия : С потерями
Размер потока : 92,8 Мбайт (4%)
Заголовок : Авторский (одноголосый закадровый) - Юрий Живов
Default : Нет
Forced : Нет
Аудио #5
Идентификатор : 6
Формат : AAC
Формат/Информация : Advanced Audio Codec
Профиль формата : LC
Идентификатор кодека : A_AAC
Продолжительность : 1 ч. 41 м.
Каналы : 2 канала
Расположение каналов : Front: L R
Частота : 48,0 КГц
Частота кадров : 46,875 кадров/сек (1024 spf)
Метод сжатия : С потерями
Язык : English
Default : Да
Forced : Нет
Текст
Идентификатор : 7
Формат : UTF-8
Идентификатор кодека : S_TEXT/UTF8
Идентификатор кодека/Информация : UTF-8 Plain Text
Язык : English
Default : Нет
Forced : Нет


Релиз: &


_________________
Проголосуй за трекер Открытый торрент трекер - RUS-MEDIA.ORG

Проголосуй Открытый торрент трекер - RUS-MEDIA.ORG


Вернуться к началу
 Профиль Отправить личное сообщение  
 
   Похожие торренты   Автор   Торрент   Размер 
В этой теме нет новых непрочитанных сообщений. Убийца ворон / A Murder of Crows [триллер, криминал, 1998] WEBRip, Mvo

salma3

22 | 1

1.45 ГБ

В этой теме нет новых непрочитанных сообщений. Убийца ворон / A Murder of Crows [триллер, криминал, 1998] WEBRip 1080p, Mvo

salma3

20 | 8

7.59 ГБ

В этой теме нет новых непрочитанных сообщений. Убийца ворон / A Murder of Crows [боевик, триллер, криминал, 1998] DVDRip, Avo

salma3

120 | 19

1.46 ГБ

В этой теме нет новых непрочитанных сообщений. Убийца на шпильках / High Heel Homicide [Триллер, 2017] WEBRip, Dvo

salma3

143 | 5

1.37 ГБ

В этой теме нет новых непрочитанных сообщений. Убийца на шпильках / High Heel Homicide [Триллер, 2017] WEBRip 720p, Dvo

salma3

75 | 4

2.04 ГБ

В этой теме нет новых непрочитанных сообщений. Убийца / O Matador [вестерн, 2017] WEBRip, Mvo

salma3

769 | 140

1.46 ГБ

В этой теме нет новых непрочитанных сообщений. Убийца / O Matador [вестерн, 2017] WEBRip, Mvo

salma3

0 | 13

1.37 ГБ


Начать новую тему Ответить на тему  [ 1 сообщение ] 




Для Мосгорсуда, Роскомнадзора и рекламодателей:: mosgorsud-torrent[собачка]yandex.ru
cron