Торрент файл
скачать торрент магнет ссылка Добавлен: 13 июл 2017, 10:40
Размер: 1.37 ГБ
Сидеров: 94
Личеров: 15
Статус: (salma3)
Автор

СообщениеДобавлено: 13 июл 2017, 10:40 

Не в сети
Супермодератор
Аватара пользователя
Дата регистрации:
15 фев 2012, 16:44
Возраст: 28
Спасибо: 6642 / 2146
Сообщения: 45664
Год выхода: 1990
Жанр: ужасы, фантастика, боевик
Режиссер: Марк Л. Лестер

В ролях: Брэдли Грегг, Трейси Линд, Малкольм МакДауэлл, Стейси Кич, Пэтрик Килпэтрик, Пэм Гриер, Джон П. Райан, Даррен Э. Берроуз, Джошуа Джон Миллер, Шэрон Уайатт

О фильме: Время действия - 1999 год. В школах и вузах США - полный беспредел, творимый молодежными бандами. Департамент Обороны Образования, отчаявшись навести дисциплину в Высшей школе Кеннеди решает воспользоваться услугами фирмы «Мегатек», работавшей на оборону и продолжающей вести разработку различных моделей роботов, в том числе учителей-киборгов. Три электронных учителя, прибывшие в школу, моментально звереют от общения со своими студентами и начинают безжалостное смертельное сражение «за успеваемость и посещаемость». На этот раз юные бандиты находят себе равных противников!



Страна: США
Продолжительность: 01:35:54
Перевод: Профессиональный (двухголосый, закадровый) [CP Digital]

Файл
Кодек: XviD
Качество: HDRip
Видео: 720x400 (1.80:1), 23.976 fps, XviD build 73 ~1838 kbps avg, 0.27 bit/pixel
Звук: 48 kHz, AC3 Dolby Digital, 2/0 (L,R) ch, ~192 kbps



General
Complete name : Class.of.1999.1990.HDRip.ot.Portablius.avi
Format : AVI
Format/Info : Audio Video Interleave
File size : 1.37 GiB
Duration : 1 h 35 min
Overall bit rate : 2 040 kb/s
Writing application : VirtualDubMod 1.5.10.3 | www.virtualdub-fr.org || (build 2550/release)
Writing library : VirtualDubMod build 2550/release
Video
ID : 0
Format : MPEG-4 Visual
Format profile : Advanced Simple@L5
Format settings, BVOP : 1
Format settings, QPel : No
Format settings, GMC : No warppoints
Format settings, Matrix : Custom
Codec ID : XVID
Codec ID/Hint : XviD
Duration : 1 h 35 min
Bit rate : 1 839 kb/s
Width : 720 pixels
Height : 400 pixels
Display aspect ratio : 16:9
Frame rate : 23.976 (24000/1001) FPS
Original frame rate : 23.976 (23976/1000) FPS
Color space : YUV
Chroma subsampling : 4:2:0
Bit depth : 8 bits
Scan type : Progressive
Compression mode : Lossy
Bits/(Pixel*Frame) : 0.266
Stream size : 1.23 GiB (90%)
Writing library : XviD 73
Audio
ID : 1
Format : AC-3
Format/Info : Audio Coding 3
Format settings, Endianness : Big
Codec ID : 2000
Duration : 1 h 35 min
Bit rate mode : Constant
Bit rate : 192 kb/s
Channel(s) : 2 channels
Channel positions : Front: L R
Sampling rate : 48.0 kHz
Frame rate : 31.250 FPS (1536 spf)
Bit depth : 16 bits
Compression mode : Lossy
Stream size : 132 MiB (9%)
Alignment : Split accross interleaves
Interleave, duration : 42 ms (1.00 video frame)
Interleave, preload duratio : 500 ms
Service kind : Complete Main


_________________
Проголосуй за трекер Открытый торрент трекер - RUS-MEDIA.ORG

Проголосуй Открытый торрент трекер - RUS-MEDIA.ORG



реклама партнёра


Вернуться к началу
 Профиль Отправить личное сообщение  
 
   Похожие торренты   Автор   Торрент   Размер 
В этой теме нет новых непрочитанных сообщений. Класс 1999 / Class of 1999 [ужасы, фантастика, боевик, 1990] DVDRip-AVC, Dvo

salma3

128 | 38

2.66 ГБ

В этой теме нет новых непрочитанных сообщений. Класс 1999 / Class of 1999 [ужасы, фантастика, боевик, 1990] BDRip 1080p, Dvo

salma3

40 | 17

10.77 ГБ

В этой теме нет новых непрочитанных сообщений. Класс 1999 / Class of 1999 [ужасы, фантастика, боевик, 1990] BDRip 720p, Dvo

salma3

34 | 11

6.22 ГБ

В этой теме нет новых непрочитанных сообщений. Класс 1999: Новый учитель / Class of 1999 II: The Substitute [ужасы, фантастика, боевик, триллер, 1994] DVDRip-AVC, Dvo

salma3

65 | 11

2.48 ГБ

В этой теме нет новых непрочитанных сообщений. Люди Икс: Первый класс / X-Men: First Class [фантастика, боевик, приключения, 2011] BDRip, Avo [Гаврилов]

salma3

10 | 7

2.18 ГБ

В этой теме нет новых непрочитанных сообщений. Класс 1984 / Class of 1984 [боевик, триллер, драма, 1982] HDRip, Avo

salma3

30 | 8

745.19 МБ

В этой теме нет новых непрочитанных сообщений. Вирус / Virus [ужасы, фантастика, боевик, 1999] BDRip-AVC, Dub

salma3

69 | 15

745.74 МБ


Начать новую тему Ответить на тему  [ 1 сообщение ] 




Для Мосгорсуда, Роскомнадзора и рекламодателей:: mosgorsud-torrent[собачка]yandex.ru