Торрент файл
скачать торрент магнет ссылка Добавлен: 11 июл 2017, 11:01
Размер: 1.46 ГБ
Сидеров: 56
Личеров: 9
Статус: (salma3)
Автор

СообщениеДобавлено: 11 июл 2017, 11:01 

Не в сети
Супермодератор
Аватара пользователя
Дата регистрации:
15 фев 2012, 16:44
Возраст: 28
Спасибо: 6644 / 2146
Сообщения: 45843
Жанр: Боевик, Триллер, Драма
Режиссер: Майкл Уиннер

Актеры: Чарльз Бронсон, Мартин Болсам, Джек Колвин, Пол Косло, Норман Фелл, Дэвид Шайнер, Стюарт Марголин, Ральф Уэйт, Альфред Райдер, Уолтер Бурк

Описание:
Серия событий, кажущихся не связанными между собой, приводит к раскрытию крупнейшего преступления. Сумасшедший главарь мафии одержим местью за убийство своих коллег, совершенное 40 лет назад. Бронсон противостоит ему в желании осуществить вендетту.



Производство: Италия, США
Релиз от: Охрана (NNMCLUB)
Продолжительность: 01:31:17
Перевод: Профессиональный двухголосый закадровый, авторский одноголосый
Субтитры: Английские

Файл
Качество видео: DVDRip-AVC
Видео: AVC/H.264, 720x384, ~1705 Kbps
Аудио 1: Русский, AC3, 2 ch, 192 Kbps, 48.0 kHz (DVO, студия"Кипарис")
Аудио 2: Русский, AC3, 2 ch, 192 Kbps, 48.0 kHz (AVO, Ю. Сербин)
Аудио 3: Английский, AC3, 2 ch, 192 Kbps, 48.0 kHz (Оригинал)


General
Unique ID : 237431581790398836463401311762325379969 (0xB29FA8C8A0B066A0A07079B02BF31B81)
Complete name : F:DownloadsХладнокровный убийца. 1973. NNMCLUB.mkv
Format : Matroska
Format version : Version 4 / Version 2
File size : 1.46 GiB
Duration : 1h 31mn
Overall bit rate : 2 283 Kbps
Encoded date : UTC 2017-06-23 09:12:24
Writing application : mkvmerge v7.0.0 ('Where We Going') 32bit built on Jun 9 2014 15:08:34
Writing library : libebml v1.3.0 + libmatroska v1.4.1
DURATION : 01:30:27.429000000
NUMBER_OF_FRAMES : 949
NUMBER_OF_BYTES : 40119
_STATISTICS_WRITING_APP : mkvmerge v7.0.0 ('Where We Going') 32bit built on Jun 9 2014 15:08:34
_STATISTICS_WRITING_DATE_UTC : 2017-06-23 09:12:24
_STATISTICS_TAGS : BPS DURATION NUMBER_OF_FRAMES NUMBER_OF_BYTES
Video
ID : 1
Format : AVC
Format/Info : Advanced Video Codec
Format profile : High@L3.1
Format settings, CABAC : Yes
Format settings, ReFrames : 12 frames
Codec ID : V_MPEG4/ISO/AVC
Duration : 1h 31mn
Bit rate : 1 705 Kbps
Width : 720 pixels
Height : 384 pixels
Display aspect ratio : 1.85:1
Frame rate mode : Constant
Frame rate : 25.000 fps
Color space : YUV
Chroma subsampling : 4:2:0
Bit depth : 8 bits
Scan type : Progressive
Bits/(Pixel*Frame) : 0.247
Stream size : 1.06 GiB (73%)
Title : The Stone Killer
Writing library : x264 core 125 r2208 d9d2288
Encoding settings : cabac=1 / ref=12 / deblock=1:-1:-1 / analyse=0x3:0x133 / me=umh / subme=10 / psy=1 / psy_rd=1.00:0.10 / mixed_ref=1 / me_range=32 / chroma_me=1 / trellis=2 / 8x8dct=1 / cqm=0 / deadzone=21,11 / fast_pskip=0 / chroma_qp_offset=-3 / threads=6 / lookahead_threads=1 / sliced_threads=0 / nr=0 / decimate=0 / interlaced=0 / bluray_compat=0 / constrained_intra=0 / bframes=7 / b_pyramid=2 / b_adapt=2 / b_bias=0 / direct=3 / weightb=1 / open_gop=0 / weightp=2 / keyint=250 / keyint_min=25 / scenecut=40 / intra_refresh=0 / rc_lookahead=60 / rc=2pass / mbtree=1 / bitrate=1705 / ratetol=1.0 / qcomp=0.60 / qpmin=0 / qpmax=69 / qpstep=4 / cplxblur=20.0 / qblur=0.5 / ip_ratio=1.40 / aq=1:1.00
Language : English
Default : Yes
Forced : No
Audio #1
ID : 2
Format : AC-3
Format/Info : Audio Coding 3
Mode extension : CM (complete main)
Format settings, Endianness : Big
Codec ID : A_AC3
Duration : 1h 31mn
Bit rate mode : Constant
Bit rate : 192 Kbps
Channel(s) : 2 channels
Channel positions : Front: L R
Sampling rate : 48.0 KHz
Bit depth : 16 bits
Compression mode : Lossy
Stream size : 125 MiB (8%)
Title : Двуголосый закадровый, студия"Кипарис"
Language : Russian
Default : Yes
Forced : No
Audio #2
ID : 3
Format : AC-3
Format/Info : Audio Coding 3
Mode extension : CM (complete main)
Format settings, Endianness : Big
Codec ID : A_AC3
Duration : 1h 31mn
Bit rate mode : Constant
Bit rate : 192 Kbps
Channel(s) : 2 channels
Channel positions : Front: L R
Sampling rate : 48.0 KHz
Bit depth : 16 bits
Compression mode : Lossy
Stream size : 125 MiB (8%)
Title : Авторский, Ю. Сербин
Language : Russian
Default : No
Forced : No
Audio #3
ID : 4
Format : AC-3
Format/Info : Audio Coding 3
Mode extension : CM (complete main)
Format settings, Endianness : Big
Codec ID : A_AC3
Duration : 1h 31mn
Bit rate mode : Constant
Bit rate : 192 Kbps
Channel(s) : 2 channels
Channel positions : Front: L R
Sampling rate : 48.0 KHz
Bit depth : 16 bits
Compression mode : Lossy
Stream size : 125 MiB (8%)
Title : Оригинал
Language : English
Default : No
Forced : No
Text
ID : 5
Format : UTF-8
Codec ID : S_TEXT/UTF8
Codec ID/Info : UTF-8 Plain Text
Title : SRT
Language : English
Default : No
Forced : No


_________________
Проголосуй за трекер Открытый торрент трекер - RUS-MEDIA.ORG

Проголосуй Открытый торрент трекер - RUS-MEDIA.ORG



реклама партнёра


Вернуться к началу
 Профиль Отправить личное сообщение  
 
   Похожие торренты   Автор   Торрент   Размер 
В этой теме нет новых непрочитанных сообщений. Хладнокровный убийца / The Stone Killer [боевик, триллер, драма, криминал, 1973] HDRip, Dvo

salma3

144 | 10

1.45 ГБ

В этой теме нет новых непрочитанных сообщений. Наемный убийца / Bounty Killer [боевик, фантастика, триллер, 2013] BDRip-AVC, Mvo

salma3

207 | 42

745.16 МБ

В этой теме нет новых непрочитанных сообщений. Убийца парня / Boyfriend Killer [триллер, драма, 2017] HDTVRip, Mvo

salma3

79 | 25

1.37 ГБ

В этой теме нет новых непрочитанных сообщений. Тренер-убийца / Killer Coach [триллер, драма, криминал, 2016] HDTVRip, Mvo

salma3

718 | 379

1.37 ГБ

В этой теме нет новых непрочитанных сообщений. Я – убийца / Jestem morderca / I'm a Killer [триллер, драма, криминал, 2016] HDRip, Dvo

salma3

208 | 18

1.46 ГБ

В этой теме нет новых непрочитанных сообщений. Тренер-убийца / Killer Coach [триллер, драма, криминал, 2016] HDTVRip 720р, Mvo

salma3

306 | 158

2.56 ГБ

В этой теме нет новых непрочитанных сообщений. Убийца внутри меня / The Killer Inside Me [Триллер, драма, вестерн, криминал, 2010] ВDRip 1080р, Dub+Sub

salma3

29 | 7

9.01 ГБ


Начать новую тему Ответить на тему  [ 1 сообщение ] 




Для Мосгорсуда, Роскомнадзора и рекламодателей:: mosgorsud-torrent[собачка]yandex.ru