Торрент файл
скачать торрент магнет ссылка Добавлен: 06 июл 2017, 11:03
Размер: 1.46 ГБ
Сидеров: 37
Личеров: 7
Статус: (salma3)
Автор

СообщениеДобавлено: 06 июл 2017, 11:03 

Не в сети
Супермодератор
Аватара пользователя
Дата регистрации:
15 фев 2012, 16:44
Возраст: 28
Спасибо: 6643 / 2146
Сообщения: 45784
Год выхода: 1997
Жанр: фэнтези, драма, детектив
Режиссер: Ник Уиллинг

В ролях: Тоби Стивенс, Эмили Вуф, Бен Кингсли, Фрэнсис Барбер, Филип Дэвис, Ханна Боулд, Мириам Грант, Рэйчел Шелли, Эдвард Хардуик, Клайв Меррисон

О фильме:
Фотограф Чарльз Касл тяжело переживает утрату своей красавицы-невесты, погибшей во время снежной бури. Утратив вкус к жизни, вне себя от горя, он отправляется на войну, и, работая фоторепортером, не раз встречается лицом к лицу со смертью. После войны Чарльз встречает таинственную незнакомку, которая показывает ему фотоснимки, на которых изображены… настоящие феи. Непреодолимое желание докопаться до истины приводит его в захолустную деревушку Беркинвэлл. В этом мирном, на первый взгляд, местечке, Чарльз постепенно оказывается втянутым в мистическую феерию, которая сулит райское блаженство, но приносит окружающим только смерть. Сможет ли Чарльз разгадать головоломку, удастся ли ему найти грань между реальностью и фантазией, между жизнью и смертью?



Страна: Великобритания
Продолжительность: 01:46:31
Перевод: Профессиональный (двухголосый, закадровый) НТВ+

Файл
Качество: WEBRip-AVC
Формат: Matroska
Видео: 1024x576 at 25.000 fps, High@L4.1, ~1890 kbps
Аудио: AАC, 2/0 (L,R) ch, ~64 kbps
Cубтитры: Russian, English
General
Unique ID : 201245405520882494958356842764738819565 (0x9766748C55160A26BB77B8DFCBE4F5ED)
Complete name : F:С феями шутки плохи.(1997).WEBRIP-AVC.[-=DoMiNo=-].mkv
Format : Matroska
Format version : Version 4 / Version 2
File size : 1.46 GiB
Duration : 1 h 46 min
Overall bit rate : 1 956 kb/s
Movie name : С феями шутки плохи
Encoded date : UTC 2017-07-05 12:32:52
Writing application : mkvmerge v13.0.0 ('The Juggler') 64bit
Writing library : libebml v1.3.4 + libmatroska v1.4.5
Attachments : poster.jpg
Video
ID : 1
Format : AVC
Format/Info : Advanced Video Codec
Format profile : High@L4.1
Format settings, CABAC : Yes
Format settings, RefFrames : 11 frames
Codec ID : V_MPEG4/ISO/AVC
Duration : 1 h 46 min
Bit rate : 1 890 kb/s
Width : 1 024 pixels
Height : 576 pixels
Display aspect ratio : 16:9
Frame rate mode : Constant
Frame rate : 25.000 FPS
Color space : YUV
Chroma subsampling : 4:2:0
Bit depth : 8 bits
Scan type : Progressive
Bits/(Pixel*Frame) : 0.128
Stream size : 1.41 GiB (97%)
Title : RIP_BY_-=DoMiNo=-
Writing library : x264 core 152 r2851M ba24899
Encoding settings : cabac=1 / ref=11 / deblock=1:-3:-3 / analyse=0x3:0x133 / me=umh / subme=11 / psy=1 / psy_rd=1.00:0.05 / mixed_ref=1 / me_range=48 / chroma_me=1 / trellis=2 / 8x8dct=1 / cqm=0 / deadzone=21,11 / fast_pskip=0 / chroma_qp_offset=-3 / threads=6 / lookahead_threads=1 / sliced_threads=0 / nr=0 / decimate=1 / interlaced=0 / bluray_compat=0 / constrained_intra=0 / bframes=12 / b_pyramid=2 / b_adapt=2 / b_bias=0 / direct=3 / weightb=1 / open_gop=0 / weightp=2 / keyint=250 / keyint_min=25 / scenecut=40 / intra_refresh=0 / rc_lookahead=60 / rc=2pass / mbtree=1 / bitrate=1890 / ratetol=1.0 / qcomp=0.65 / qpmin=0 / qpmax=69 / qpstep=4 / cplxblur=20.0 / qblur=0.5 / ip_ratio=1.40 / aq=1:1.00
Language : Russian
Default : Yes
Forced : No
Audio
ID : 2
Format : AAC
Format/Info : Advanced Audio Codec
Format profile : HE-AAC / LC
Codec ID : A_AAC
Duration : 1 h 46 min
Bit rate : 64.0 kb/s
Channel(s) : 2 channels
Channel positions : Front: L R
Sampling rate : 48.0 kHz / 24.0 kHz
Frame rate : 23.438 FPS (1024 SPF)
Compression mode : Lossy
Stream size : 48.8 MiB (3%)
Title : НТВ+
Language : Russian
Default : Yes
Forced : No
Text #1
ID : 3
Format : UTF-8
Codec ID : S_TEXT/UTF8
Codec ID/Info : UTF-8 Plain Text
Duration : 1 h 39 min
Bit rate : 61 b/s
Count of elements : 803
Stream size : 45.3 KiB (0%)
Title : RUS
Language : Russian
Default : Yes
Forced : No
Text #2
ID : 4
Format : UTF-8
Codec ID : S_TEXT/UTF8
Codec ID/Info : UTF-8 Plain Text
Duration : 1 h 38 min
Bit rate : 35 b/s
Count of elements : 791
Stream size : 25.9 KiB (0%)
Title : ENG
Language : English
Default : No
Forced : No
Menu
00:00:00.000 : :Глава 1
00:08:41.433 : :Глава 2
00:17:03.553 : :Глава 3
00:25:54.643 : :Глава 4
00:35:24.357 : :Глава 5
00:44:54.071 : :Глава 6
00:54:52.753 : :Глава 7
01:05:59.029 : :Глава 8
01:18:32.210 : :Глава 9
01:30:17.110 : :Глава 10
01:38:39.231 : :Глава 11


_________________
Проголосуй за трекер Открытый торрент трекер - RUS-MEDIA.ORG

Проголосуй Открытый торрент трекер - RUS-MEDIA.ORG



реклама партнёра


Вернуться к началу
 Профиль Отправить личное сообщение  
 
   Похожие торренты   Автор   Торрент   Размер 
В этой теме нет новых непрочитанных сообщений. С феями шутки плохи / Фотофеи / Photographing Fairies [фэнтези, драма, детектив, 1997] WEBRip, Dvo

salma3

47 | 5

1.45 ГБ

В этой теме нет новых непрочитанных сообщений. С феями шутки плохи / Фотофеи / Photographing Fairies [фэнтези, драма, детектив, 1997] WEBRip 1080p, Dvo

salma3

0 | 0

4.73 ГБ

В этой теме нет новых непрочитанных сообщений. Американские горки / Switchback [триллер, криминал, детектив, 1997] WEBRip, Mvo

salma3

11 | 2

2.17 ГБ

В этой теме нет новых непрочитанных сообщений. Американские горки / Switchback [триллер, криминал, детектив, 1997] WEBRip-AVC, Mvo

salma3

26 | 2

1.45 ГБ

В этой теме нет новых непрочитанных сообщений. Американские горки / Switchback [триллер, криминал, детектив, 1997] WEBRip 1080p, Mvo

salma3

11 | 5

8.24 ГБ

В этой теме нет новых непрочитанных сообщений. Миднайт, Техас / Midnight, Texas [S01] [Фэнтези, драма, детектив, 2017] WEBRip, Mvo [IdeaFilm]

salma3

32 | 79

6.58 ГБ

В этой теме нет новых непрочитанных сообщений. Миднайт, Техас / Midnight, Texas [S01] [Фэнтези, драма, детектив, 2017] WEBRip 1080p, Mvo [IdeaFilm]

salma3

4 | 16

34.65 ГБ


Начать новую тему Ответить на тему  [ 1 сообщение ] 




Для Мосгорсуда, Роскомнадзора и рекламодателей:: mosgorsud-torrent[собачка]yandex.ru