Торрент файл
скачать торрент магнет ссылка Добавлен: 05 июл 2017, 11:14
Размер: 1.45 ГБ
Сидеров: 1
Личеров: 11
Статус: (salma3)
Автор

СообщениеДобавлено: 05 июл 2017, 11:14 

Не в сети
Супермодератор
Аватара пользователя
Дата регистрации:
15 фев 2012, 16:44
Возраст: 28
Спасибо: 6643 / 2146
Сообщения: 45801
Год выпуска: 1976
Жанр: драма, мелодрама, биография
Режиссер: Рэндал Клайзер

В ролях: Джон Траволта, Глайннис О’Коннор, Роберт Рид, Диана Хайланд, Карен Морроу, Ховард Платт, Базз Олдрин, Ральф Беллами, Келли Уорд

Описание:
Родившегося без иммунитета малыша, родители, боящиеся его потерять, помещают в пластиковый бункер. Он вынужден жить «под колпаком»...



Страна: США
Продолжительность: 01:37:07
Перевод: Профессиональный (двухголосый, закадровый)

Качество: DVDRip
Видео: 656x480 (4:3), 23.976 fps, XviD ~1 745 kbps avg
Аудио №1: 48.0 kHz, AC3 Dolby Digital, 2/0 (L,R) ch, ~192 kbps | RUS
Аудио №2: 48.0 kHz, AC3 Dolby Digital, 2/0 (L,R) ch, ~192 kbps | ENG

Релиз от: miha2154
General
Полное имя : Мальчик в пластиковом пузыре.avi
Формат : AVI
Формат/Информация : Audio Video Interleave
Размер файла : 1,45 Гбайт
Продолжительность : 1 ч. 37 м.
Общий поток : 2143 Кбит/сек
Режиссёр : miha2154
Программа кодирования : VirtualDubMod 1.5.10.2 (build 2540/release)
Библиотека кодирования : VirtualDubMod build 2540/release
Видео
Идентификатор : 0
Формат : MPEG-4 Visual
Профиль формата : Advanced Simple@L5
Параметр BVOP формата : 2
Параметр QPel формата : Нет
Параметр GMC формата : Без точки перехода
Параметр матрицы формата : Default (MPEG)
Идентификатор кодека : XVID
Идентификатор кодека/Подсказка : XviD
Продолжительность : 1 ч. 37 м.
Битрейт : 1745 Кбит/сек
Ширина : 656 пикселей
Высота : 480 пикселей
Соотношение сторон : 4:3
Частота кадров : 23,976 кадра/сек
Цветовое пространство : YUV
Субдискретизация насыщенности : 4:2:0
Битовая глубина : 8 бит
Тип развёртки : Прогрессивная
Метод сжатия : С потерями
Бит/(Пиксели*Кадры) : 0.231
Размер потока : 1,18 Гбайт (81%)
Библиотека кодирования : XviD 1.1.0 (UTC 2005-11-22)
Аудио #1
Идентификатор : 1
Формат : AC-3
Формат/Информация : Audio Coding 3
Расширение режима : CM (complete main)
Параметр Endianness формата : Big
Идентификатор кодека : 2000
Продолжительность : 1 ч. 37 м.
Вид битрейта : Постоянный
Битрейт : 192 Кбит/сек
Каналы : 2 канала
Расположение каналов : Front: L R
Частота : 48,0 КГц
Битовая глубина : 16 бит
Метод сжатия : С потерями
Размер потока : 133 Мбайт (9%)
Выравнивание : Разделение по промежуткам
Продолжительность промежутка : 42 мс. (1,00 видеокадр)
Время предзагрузки промежутка : 500 мс.
Заголовок : Профессиональный (двухголосый, закадровый)
Аудио #2
Идентификатор : 2
Формат : AC-3
Формат/Информация : Audio Coding 3
Расширение режима : CM (complete main)
Параметр Endianness формата : Big
Идентификатор кодека : 2000
Продолжительность : 1 ч. 37 м.
Вид битрейта : Постоянный
Битрейт : 192 Кбит/сек
Каналы : 2 канала
Расположение каналов : Front: L R
Частота : 48,0 КГц
Битовая глубина : 16 бит
Метод сжатия : С потерями
Размер потока : 133 Мбайт (9%)
Выравнивание : Разделение по промежуткам
Продолжительность промежутка : 42 мс. (1,00 видеокадр)
Время предзагрузки промежутка : 500 мс.
Заголовок : Английский


_________________
Проголосуй за трекер Открытый торрент трекер - RUS-MEDIA.ORG

Проголосуй Открытый торрент трекер - RUS-MEDIA.ORG



реклама партнёра


Вернуться к началу
 Профиль Отправить личное сообщение  
 
   Похожие торренты   Автор   Торрент   Размер 
В этой теме нет новых непрочитанных сообщений. Послание / The Message [драма, военный, биография, история, 1976] HDRip, Avo

salma3

50 | 18

2.18 ГБ

В этой теме нет новых непрочитанных сообщений. Бальзак / Balzac [драма, мелодрама, биография, 1999] DVDRip, Avo

salma3

160 | 41

2.05 ГБ

В этой теме нет новых непрочитанных сообщений. О, Серафина! / Oh, Serafina! [мелодрама, комедия, 1976] DVDRip, Dvo+Avo

salma3

9 | 4

1.56 ГБ

В этой теме нет новых непрочитанных сообщений. Сидр с Роузи / Cider with Rosie [драма, мелодрама, биография, 1998] DVDRip, Avo

salma3

14 | 1

1.47 ГБ

В этой теме нет новых непрочитанных сообщений. Малер на кушетке / Mahler auf der Couch [драма, мелодрама, биография, 2010] DVDRip, Mvo

salma3

61 | 13

1.46 ГБ

В этой теме нет новых непрочитанных сообщений. Автомойка / Car Wash [драма, мелодрама, комедия, 1976] HDRip, Dvo

salma3

1 | 2

1.45 ГБ

В этой теме нет новых непрочитанных сообщений. Познакомьтесь с Дороти Дендридж / Introducing Dorothy Dandridge [драма, мелодрама, биография, музыка, 1999] DVDRip, Mvo

salma3

0 | 0

2.18 ГБ


Начать новую тему Ответить на тему  [ 1 сообщение ] 




Для Мосгорсуда, Роскомнадзора и рекламодателей:: mosgorsud-torrent[собачка]yandex.ru