Торрент файл
скачать торрент магнет ссылка Добавлен: 19 июн 2017, 11:46
Размер: 3.07 ГБ
Сидеров: 175
Личеров: 58
Статус: (salma3)
Автор

СообщениеДобавлено: 19 июн 2017, 11:46 

Не в сети
Супермодератор
Аватара пользователя
Дата регистрации:
15 фев 2012, 16:44
Возраст: 28
Спасибо: 6487 / 2129
Сообщения: 41182
Год выхода: 2016
Жанр: боевик, комедия, военный
Режиссер: Дин Шэн

В ролях: Джеки Чан, Хуан Цзытао, Джейси Чан, Ван Кай, Хироюки Икэути, Сан Пин, Алан Нг, Сюй Фань, Даррен Ван, Кодзи Яно

О фильме:
В декабре 1941 года Япония расширяет оккупацию соседних стран в Юго-Восточной Азии. Железная дорога от Тяньцзинь Нанкин в Восточном Китае стала ключевым маршрутом для военных перевозок под усиленной охраной японских солдат. Работник железной дороги Ма Юань организовывает команду борцов за свободу. Используя свои глубокие знания железнодорожных сетей, он со своими людьми устраивает засады для японских солдат и ворует их припасы, чтобы накормить голодающих соотечественников. Местные называют своих героев «железнодорожными тиграми». И когда борцы за свободу оказываются на неправильной стороне путей при отправке подкрепления японцам в провинцию Шаньдун, Ма Юань решается на опасный поступок — взорвать тщательно охраняемый железнодорожный мост.



Страна: Китай
Продолжительность: 02:04:15
Перевод: Профессиональный (многоголосый, закадровый)[Студия Jaskier]
Субтитры: Английские

Файл
Формат: MKV
Качество: BDRip-AVC
Видео: AVC, 1024х428 (2.40:1), 2451 kbps, 24,000 fps
Аудио 1: 48 kHz, AC3, 5.1, 448 Kbps | RUS |
Аудио 2: 48 kHz, AC3, 2.0, 192 Kbps | RUS |
Аудио 2: 48 kHz, AC3, 5.1, 448 Kbps | CHN |

Навигация по главам: есть

General
Unique ID : 232887675434933938724965075969532305648 (0xAF3488E755AF59EC92D43AAC1B4D20F0)
Complete name : D:Railroad.Tigers.2016.BDRip.AVC.ExKinoRay.mkv
Format : Matroska
Format version : Version 2
File size : 3.07 GiB
Duration : 2 h 4 min
Overall bit rate : 3 541 kb/s
Movie name : Railroad Tigers 2016 from ExKinoRay
Encoded date : UTC 2017-06-18 04:32:20
Writing application : mkvmerge v5.6.0 ('Kenya Kane') built on May 27 2012 16:44:04
Writing library : libebml v1.2.3 + libmatroska v1.3.0

Video
ID : 1
Format : AVC
Format/Info : Advanced Video Codec
Format profile : High@L4.1
Format settings, CABAC : Yes
Format settings, ReFrames : 11 frames
Codec ID : V_MPEG4/ISO/AVC
Duration : 2 h 4 min
Bit rate : 2 451 kb/s
Width : 1 024 pixels
Height : 428 pixels
Display aspect ratio : 2.40:1
Frame rate mode : Constant
Frame rate : 24.000 FPS
Color space : YUV
Chroma subsampling : 4:2:0
Bit depth : 8 bits
Scan type : Progressive
Bits/(Pixel*Frame) : 0.233
Stream size : 2.07 GiB (67%)
Title : Enigma
Writing library : x264 core 144 r2525 40bb568
Encoding settings : cabac=1 / ref=11 / deblock=1:-2:-2 / analyse=0x3:0x113 / me=umh / subme=10 / psy=1 / psy_rd=1.02:0.07 / mixed_ref=1 / me_range=32 / chroma_me=1 / trellis=2 / 8x8dct=1 / cqm=0 / deadzone=21,11 / fast_pskip=1 / chroma_qp_offset=-3 / threads=12 / lookahead_threads=3 / sliced_threads=0 / nr=0 / decimate=0 / interlaced=0 / bluray_compat=0 / constrained_intra=0 / bframes=10 / b_pyramid=2 / b_adapt=2 / b_bias=0 / direct=3 / weightb=1 / open_gop=0 / weightp=2 / keyint=240 / keyint_min=24 / scenecut=40 / intra_refresh=0 / rc_lookahead=40 / rc=2pass / mbtree=0 / bitrate=2451 / ratetol=1.0 / qcomp=0.60 / qpmin=0 / qpmax=51 / qpstep=4 / cplxblur=20.0 / qblur=0.5 / vbv_maxrate=50000 / vbv_bufsize=62500 / nal_hrd=none / filler=0 / ip_ratio=1.40 / pb_ratio=1.30 / aq=3:0.90
Language : English
Default : Yes
Forced : No
Color range : Limited
Color primaries : BT.709
Transfer characteristics : BT.709
Matrix coefficients : BT.709

Audio #1
ID : 2
Format : AC-3
Format/Info : Audio Coding 3
Mode extension : CM (complete main)
Format settings, Endianness : Big
Codec ID : A_AC3
Duration : 2 h 4 min
Bit rate mode : Constant
Bit rate : 448 kb/s
Channel(s) : 6 channels
Channel positions : Front: L C R, Side: L R, LFE
Sampling rate : 48.0 kHz
Frame rate : 31.250 FPS (1536 spf)
Compression mode : Lossy
Stream size : 398 MiB (13%)
Title : MVO (Jaskier)
Language : Russian
Default : Yes
Forced : No

Audio #2
ID : 3
Format : AC-3
Format/Info : Audio Coding 3
Mode extension : CM (complete main)
Format settings, Endianness : Big
Codec ID : A_AC3
Duration : 2 h 4 min
Bit rate mode : Constant
Bit rate : 192 kb/s
Channel(s) : 2 channels
Channel positions : Front: L R
Sampling rate : 48.0 kHz
Frame rate : 31.250 FPS (1536 spf)
Compression mode : Lossy
Stream size : 171 MiB (5%)
Title : VO (Chesterfield)
Language : Russian
Default : No
Forced : No

Audio #3
ID : 4
Format : AC-3
Format/Info : Audio Coding 3
Mode extension : CM (complete main)
Format settings, Endianness : Big
Codec ID : A_AC3
Duration : 2 h 4 min
Bit rate mode : Constant
Bit rate : 448 kb/s
Channel(s) : 6 channels
Channel positions : Front: L C R, Side: L R, LFE
Sampling rate : 48.0 kHz
Frame rate : 31.250 FPS (1536 spf)
Compression mode : Lossy
Stream size : 398 MiB (13%)
Language : Chinese
Default : No
Forced : No

Text
ID : 5
Format : UTF-8
Codec ID : S_TEXT/UTF8
Codec ID/Info : UTF-8 Plain Text
Language : English
Default : No
Forced : No

Menu
00:00:00.000 : en:00:00:00.000
00:11:37.083 : en:00:11:37.083
00:20:22.792 : en:00:20:22.792
00:31:07.167 : en:00:31:07.167
00:41:32.583 : en:00:41:32.583
00:54:51.583 : en:00:54:51.583
01:02:03.917 : en:01:02:03.917
01:14:17.458 : en:01:14:17.458
01:23:37.167 : en:01:23:37.167
01:31:45.125 : en:01:31:45.125
01:42:10.083 : en:01:42:10.083
01:51:37.042 : en:01:51:37.042


Релиз от: Автор релиза:


_________________
Проголосуй за трекер Открытый торрент трекер - RUS-MEDIA.ORG

Проголосуй Открытый торрент трекер - RUS-MEDIA.ORG



реклама партнёра


Вернуться к началу
 Профиль Отправить личное сообщение  
 
   Похожие торренты   Автор   Торрент   Размер 
В этой теме нет новых непрочитанных сообщений. Железнодорожные тигры / Railroad Tigers [боевик, комедия, военный, 2016] BDRip, Mvo [Студия Jaskier]

salma3

350 | 73

1.46 ГБ

В этой теме нет новых непрочитанных сообщений. Железнодорожные тигры / Tiedao fei hu [боевик, комедия, военный, 2016] BDRip 720p, Mvo

salma3

446 | 367

5.5 ГБ

В этой теме нет новых непрочитанных сообщений. Американские тигры / American Tigers [боевик, 1996] DVDRip, Avo

salma3

65 | 4

1.46 ГБ

В этой теме нет новых непрочитанных сообщений. Счастливчик [01 сезон: 01-04 серии из 10] [Фантастика, боевик, 2016] HDTVRip [студия Jaskier]

Dracon

37 | 41

1.84 ГБ

В этой теме нет новых непрочитанных сообщений. Вторжение. Битва за рай / Tomorrow, When the War Began [s01] [боевик, драма, приключения, семейный, военный, 2016] PDTVRip, Mvo [Jaskier]

salma3

158 | 21

3.52 ГБ

В этой теме нет новых непрочитанных сообщений. Черные тигры / Good Guys Wear Black [Боевик, 1978] BDRip-AVC, Mvo

salma3

73 | 42

1.46 ГБ

В этой теме нет новых непрочитанных сообщений. Чёрные тигры / Good Guys Wear Black [боевик, 1978] BDRip 1080p, Mvo

salma3

44 | 9

7.96 ГБ


Начать новую тему Ответить на тему  [ 1 сообщение ] 




Для Мосгорсуда, Роскомнадзора и рекламодателей:: mosgorsud-torrent[собачка]yandex.ru