Торрент файл
скачать торрент магнет ссылка Добавлен: 15 июн 2017, 11:17
Размер: 2.18 ГБ
Сидеров: 40
Личеров: 13
Статус: (salma3)
Автор

СообщениеДобавлено: 15 июн 2017, 11:17 

В сети
Супермодератор
Аватара пользователя
Дата регистрации:
15 фев 2012, 16:44
Возраст: 28
Спасибо: 6920 / 2147
Сообщения: 52802
Год выхода: 1970
Жанр: драма, мелодрама, комедия, вестерн
Режиссер: Сэм Пекинпа

В ролях: Джейсон Робардс, Стелла Стивенс, Дэвид Уорнер, Стразер Мартин, Слим Пикенс, Л. К. Джонс, Питер Уитни, Р.Г. Армстронг, Джин Эванс, Уильям Мимс, Кэтлин Фримен, Сьюзэн О’Коннелл, Вон Тейлор, Макс Эванс, Джеймс Андерсон, Феликс Нельсон, Дарвин Ламб, Мэри Манди, Уильям Д. Фаралла, Мэтью Пекинпа, Виктор Изей, Изи Пикенс

О фильме:
Кэйбл Хог — закоренелый неудачник. Двое его товарищей избавляются от него, бросив в пустыне без воды. Но предприимчивый Хог находит источник и организовывает платный оазис: с каждого, кто хотел напиться, он снимал плату — пять центов. Первый посетитель оказался хамом, и Хог убил его. Следующим посетителем был святой отец...



Страна: США
Продолжительность: 02:01:20
Перевод: Профессиональный [многоголосый, закадровый]

Файл
Качество: BDRip-AVC
Видео: 1024x576 at 23.976 fps, High@L4.1, ~2381 kbps
Аудио: 48 kHz, AC3, 2/0 (L,R) ch, ~192.00 kbps

General
Unique ID : 52726442194600898463902241417302723398 (0x27AABE4EB30FC6A921AC25F43F154B46)
Complete name : D:Баллада о Кэйбле Хоге.(1970).BDRIP-AVC.[-=DoMiNo=-].mkv
Format : Matroska
Format version : Version 4 / Version 2
File size : 2.18 GiB
Duration : 2 h 1 min
Overall bit rate : 2 576 kb/s
Movie name : Баллада о Кэйбле Хоге
Writing application : XviD4PSP 7.0.390 DAILY
Writing library : Lavf57.71.100
ErrorDetectionType : Per level 1
Attachments : poster.jpg
ACTORS : Джейсон Робардс, Стелла Стивенс, Дэвид Уорнер, Стразер Мартин, Слим Пикенс, Л. К. Джонс, Питер Уитни, Р.Г. Армстронг, Джин Эванс, Уильям Мимс, Кэтлин Фримен, Сьюзэн О’Коннелл, Вон Тейлор, Макс Эванс, Джеймс Андерсон, Феликс Нельсон, Дарвин Ламб, Мэри Мандей, Уильям Д. Фаралла, Мэтью Пекинпа, Виктор Изаи, Изи Пикенс
COMPOSER : Джерри Голдсмит
DATE : 1970
DIRECTOR : Сэм Пекинпа
ENCODING_INFO : BluRay > MKV / H264 > X264 VBR-2P 2381kbps Произвольный / AC3 > COPY Безопасное
GENRE : драма, мелодрама, комедия
HD_VIDEO : 1
Language : und
MEDIA_TYPE : 9
PRODUCER : Сэм Пекинпа, Гордон Т. Доусон, Уильям Д. Фаралла, Фил Фельдман
WRITER : Джон Кроуфорд, Эдмунд Пенни, Гордон Т. Доусон
Video
ID : 1
Format : AVC
Format/Info : Advanced Video Codec
Format profile : High@L4.1
Format settings, CABAC : Yes
Format settings, ReFrames : 10 frames
Codec ID : V_MPEG4/ISO/AVC
Duration : 2 h 1 min
Bit rate : 2 381 kb/s
Width : 1 024 pixels
Height : 576 pixels
Display aspect ratio : 16:9
Frame rate mode : Constant
Frame rate : 23.976 (24000/1001) FPS
Color space : YUV
Chroma subsampling : 4:2:0
Bit depth : 8 bits
Scan type : Progressive
Bits/(Pixel*Frame) : 0.168
Stream size : 1.98 GiB (91%)
Title : RIP_BY_-=DoMiNo=-
Writing library : x264 core 150 r2833M df79067
Encoding settings : cabac=1 / ref=10 / deblock=1:-3:-3 / analyse=0x3:0x133 / me=umh / subme=11 / psy=1 / psy_rd=1.00:0.10 / mixed_ref=1 / me_range=56 / chroma_me=1 / trellis=2 / 8x8dct=1 / cqm=0 / deadzone=21,11 / fast_pskip=0 / chroma_qp_offset=-3 / threads=6 / lookahead_threads=1 / sliced_threads=0 / nr=0 / decimate=1 / interlaced=0 / bluray_compat=0 / constrained_intra=0 / bframes=12 / b_pyramid=2 / b_adapt=2 / b_bias=0 / direct=3 / weightb=1 / open_gop=0 / weightp=2 / keyint=230 / keyint_min=23 / scenecut=40 / intra_refresh=0 / rc=2pass / mbtree=0 / bitrate=2381 / ratetol=1.0 / qcomp=0.60 / qpmin=0 / qpmax=69 / qpstep=4 / cplxblur=20.0 / qblur=0.5 / ip_ratio=1.40 / pb_ratio=1.30 / aq=1:1.00
Default : Yes
Forced : No
DURATION : 02:01:20.899000000
Audio
ID : 2
Format : AC-3
Format/Info : Audio Coding 3
Format settings, Endianness : Big
Codec ID : A_AC3
Duration : 2 h 1 min
Bit rate mode : Constant
Bit rate : 192 kb/s
Channel(s) : 2 channels
Channel positions : Front: L R
Sampling rate : 48.0 kHz
Frame rate : 31.250 FPS (1536 spf)
Bit depth : 16 bits
Compression mode : Lossy
Stream size : 167 MiB (7%)
Title : MVO
Language : Russian
Service kind : Complete Main
Default : Yes
Forced : No
DURATION : 02:01:20.960000000
Menu
00:00:00.000 : :Глава 1
00:04:39.195 : :Глава 2
00:08:41.562 : :Глава 3
00:12:10.229 : :Глава 4
00:15:42.942 : :Глава 5
00:18:10.506 : :Глава 6
00:23:48.885 : :Глава 7
00:26:13.905 : :Глава 8
00:32:17.435 : :Глава 9
00:35:49.230 : :Глава 10
00:39:48.719 : :Глава 11
00:46:23.489 : :Глава 12
00:51:43.600 : :Глава 13
00:58:25.001 : :Глава 14
01:03:10.995 : :Глава 15
01:05:54.867 : :Глава 16
01:08:13.589 : :Глава 17
01:13:04.046 : :Глава 18
01:18:17.359 : :Глава 19
01:21:18.540 : :Глава 20
01:27:12.143 : :Глава 21
01:31:45.666 : :Глава 22
01:35:25.636 : :Глава 23
01:35:43.946 : :Глава 24
01:39:30.631 : :Глава 25
01:41:58.695 : :Глава 26
01:44:40.524 : :Глава 27
01:48:44.017 : :Глава 28
01:53:14.954 : :Глава 29
01:58:16.839 : :Глава 30
02:00:18.002 : :Глава 31
02:01:19.939 : :Глава 32


_________________
Проголосуй за трекер Открытый торрент трекер - RUS-MEDIA.ORG

Проголосуй Открытый торрент трекер - RUS-MEDIA.ORG



реклама партнёра


Вернуться к началу
 Профиль Отправить личное сообщение  
 
   Похожие торренты   Автор   Торрент   Размер 
В этой теме нет новых непрочитанных сообщений. Баллада о Кэйбле Хоге / The Ballad of Cable Hogue [драма, мелодрама, комедия, вестерн, 1970] BDRip, Mvo

salma3

56 | 6

2.2 ГБ

В этой теме нет новых непрочитанных сообщений. Баллада о Кэйбле Хоге / The Ballad of Cable Hogue [драма, мелодрама, комедия, вестерн, 1970] BDRip, Mvo

salma3

96 | 9

1.45 ГБ

В этой теме нет новых непрочитанных сообщений. Баллада о Кэйбле Хоге / The Ballad of Cable Hogue [драма, мелодрама, комедия, вестерн, 1970] BDRip 720p, Mvo

salma3

58 | 16

5.62 ГБ

В этой теме нет новых непрочитанных сообщений. Баллада о Лефти Брауне / The Ballad of Lefty Brown [вестерн, 2017] WEBDLRip, Mvo

salma3

398 | 45

1.46 ГБ

В этой теме нет новых непрочитанных сообщений. Баллада о Лефти Брауне / The Ballad of Lefty Brown [вестерн, 2017] WEB-DLRip, Mvo

salma3

7 | 1

1.42 ГБ

В этой теме нет новых непрочитанных сообщений. Баллада о Лефти Брауне / The Ballad of Lefty Brown [вестерн, 2017] WEB-DLRip 720p, Mvo

salma3

27 | 0

3.9 ГБ

В этой теме нет новых непрочитанных сообщений. Баллада в крови / Ballad in Blood [ужасы, 2016] WEB-DLRip, Mvo

salma3

361 | 44

1.37 ГБ


Начать новую тему Ответить на тему  [ 1 сообщение ] 




Для Мосгорсуда, Роскомнадзора и рекламодателей:: mosgorsud-torrent[собачка]yandex.ru
cron