Торрент файл
скачать торрент магнет ссылка Добавлен: 24 июн 2017, 12:16
Размер: 2.84 ГБ
Сидеров: 139
Личеров: 51
Статус: (salma3)
Автор

СообщениеДобавлено: 12 июн 2017, 00:03 

Не в сети
Супермодератор
Аватара пользователя
Дата регистрации:
15 фев 2012, 16:44
Возраст: 28
Спасибо: 7163 / 2147
Сообщения: 61793
Год выпуска: 2017
Жанр: Мюзикл, фэнтези, мелодрама
Режиссер: Билл Кондон

В ролях: Эмма Уотсон, Дэн Стивенс, Люк Эванс, Джош Гэд, Кевин Клайн, Хэтти Морахэн, Хейдн Гвин, Джерард Хоран, Рэй Фиарон, Эван МакГрегор

О фильме:
Обозлённая Волшебница превратила принца Адама в отвратительное чудовище за то, что тот был злым, самовлюблённым и грубым. Чтобы снять чары с себя и слуг своего замка, ему необходимо научиться быть добрым, любить и быть любимым. Произойти это должно до того, как с розы, подаренной Волшебницей, упадёт последний лепесток. В далёкой деревушке живёт красивая девушка по имени Белль. Однажды её отец Морис отправляется на ярмарку, но по дороге сбивается с пути. Оказавшись в заколдованном замке, он становится пленником Чудовища. Белль спешит отцу на помощь.



Страна: США
Продолжительность: 02:09:16
Перевод: Дублированный [Лицензия]

Качество: BDRip-AVC
Видео: 1024x428 (2.40:1), 23.976 fps, x264 ~2245 kbps avg, 0.214 bit/pixel
Аудио #1: 48 kHz, AC3 Dolby Digital, 3/2 (L,C,R,l,r) + LFE ch, ~448.00 kbps avg | RUS (Лицензия)
Аудио #2: 48 kHz, AC3 Dolby Digital, 3/2 (L,C,R,l,r) + LFE ch, ~448.00 kbps avg | ENG (Original)

Общее
Уникальный идентификатор : 224351519715318660840202772937618870170 (0xA8C887EEE2A7F477A8A9F4707F75CF9A)
Полное имя : D:Beauty.and.the.Beast.2017.BDRip(AVC).OlLanDGroup.mkv
Формат : Matroska
Версия формата : Version 2
Размер файла : 2,78 Гбайт
Продолжительность : 2 ч. 9 м.
Общий поток : 3079 Кбит/сек
Название фильма : Beauty.and.the.Beast.2017 - TorpedoUK
Дата кодирования : UTC 2017-06-11 19:18:14
Программа кодирования : mkvmerge v7.8.0 ('River Man') 32bit built on Apr 3 2015 12:11:22
Библиотека кодирования : libebml v1.3.1 + libmatroska v1.4.2

Видео
Идентификатор : 1
Формат : AVC
Формат/Информация : Advanced Video Codec
Профиль формата : High@L4.1
Параметр CABAC формата : Да
Параметр ReFrames формата : 10 кадров
Идентификатор кодека : V_MPEG4/ISO/AVC
Продолжительность : 2 ч. 9 м.
Битрейт : 2245 Кбит/сек
Ширина : 1024 пикселя
Высота : 428 пикселей
Соотношение сторон : 2,40:1
Режим частоты кадров : Постоянный
Частота кадров : 23,976 (24000/1001) кадра/сек
Цветовое пространство : YUV
Субдискретизация насыщенности : 4:2:0
Битовая глубина : 8 бит
Тип развёртки : Прогрессивная
Бит/(Пиксели*Кадры) : 0.214
Размер потока : 1,97 Гбайт (71%)
Библиотека кодирования : x264 core 146 r2538 121396c
Настройки программы : cabac=1 / ref=10 / deblock=1:-3:-3 / analyse=0x3:0x133 / me=umh / subme=11 / psy=1 / psy_rd=1.00:0.07 / mixed_ref=1 / me_range=48 / chroma_me=1 / trellis=2 / 8x8dct=1 / cqm=0 / deadzone=21,11 / fast_pskip=0 / chroma_qp_offset=-3 / threads=6 / lookahead_threads=1 / sliced_threads=0 / nr=0 / decimate=0 / interlaced=0 / bluray_compat=0 / constrained_intra=0 / bframes=10 / b_pyramid=2 / b_adapt=2 / b_bias=0 / direct=3 / weightb=1 / open_gop=0 / weightp=2 / keyint=240 / keyint_min=23 / scenecut=40 / intra_refresh=0 / rc_lookahead=40 / rc=2pass / mbtree=0 / bitrate=2245 / ratetol=1.0 / qcomp=0.60 / qpmin=0 / qpmax=69 / qpstep=4 / cplxblur=20.0 / qblur=0.5 / vbv_maxrate=50000 / vbv_bufsize=62500 / nal_hrd=none / filler=0 / ip_ratio=1.40 / pb_ratio=1.30 / aq=1:1.00
Язык : English
Default : Да
Forced : Нет

Аудио #1
Идентификатор : 2
Формат : AC-3
Формат/Информация : Audio Coding 3
Расширение режима : CM (complete main)
Параметр Endianness формата : Big
Идентификатор кодека : A_AC3
Продолжительность : 2 ч. 9 м.
Вид битрейта : Постоянный
Битрейт : 384 Кбит/сек
Каналы : 6 каналов
Расположение каналов : Front: L C R, Side: L R, LFE
Частота : 48,0 КГц
Частота кадров : 31,250 кадров/сек (1536 spf)
Битовая глубина : 16 бит
Метод сжатия : С потерями
Размер потока : 355 Мбайт (12%)
Заголовок : iTunes
Язык : Russian
Default : Да
Forced : Нет

Аудио #2
Идентификатор : 3
Формат : AC-3
Формат/Информация : Audio Coding 3
Расширение режима : CM (complete main)
Параметр Endianness формата : Big
Идентификатор кодека : A_AC3
Продолжительность : 2 ч. 9 м.
Вид битрейта : Постоянный
Битрейт : 448 Кбит/сек
Каналы : 6 каналов
Расположение каналов : Front: L C R, Side: L R, LFE
Частота : 48,0 КГц
Частота кадров : 31,250 кадров/сек (1536 spf)
Битовая глубина : 16 бит
Метод сжатия : С потерями
Размер потока : 414 Мбайт (15%)
Заголовок : Original
Язык : English
Default : Нет
Forced : Нет

Текст #1
Идентификатор : 4
Формат : UTF-8
Идентификатор кодека : S_TEXT/UTF8
Идентификатор кодека/Информация : UTF-8 Plain Text
Заголовок : Full
Язык : Russian
Default : Нет
Forced : Нет

Текст #2
Идентификатор : 5
Формат : UTF-8
Идентификатор кодека : S_TEXT/UTF8
Идентификатор кодека/Информация : UTF-8 Plain Text
Заголовок : Full (SDH)
Язык : English
Default : Нет
Forced : Нет

Меню
00:00:00.000 : en:00:00:00.000
00:04:36.276 : en:00:04:36.276
00:08:06.528 : en:00:08:06.528
00:11:18.261 : en:00:11:18.261
00:15:21.546 : en:00:15:21.546
00:18:57.386 : en:00:18:57.386
00:25:05.921 : en:00:25:05.921
00:31:41.566 : en:00:31:41.566
00:36:08.708 : en:00:36:08.708
00:42:32.258 : en:00:42:32.258
00:47:01.318 : en:00:47:01.318
00:54:44.990 : en:00:54:44.990
01:00:43.557 : en:01:00:43.557
01:07:40.932 : en:01:07:40.932
01:14:38.224 : en:01:14:38.224
01:19:43.696 : en:01:19:43.696
01:22:02.751 : en:01:22:02.751
01:28:53.370 : en:01:28:53.370
01:34:01.302 : en:01:34:01.302
01:38:10.176 : en:01:38:10.176
01:45:23.692 : en:01:45:23.692
01:49:13.964 : en:01:49:13.964
01:55:54.197 : en:01:55:54.197
01:58:49.497 : en:01:58:49.497


Релиз от: Rip by:


_________________
Проголосуй за трекер Открытый торрент трекер - RUS-MEDIA.ORG

Проголосуй Открытый торрент трекер - RUS-MEDIA.ORG


Вернуться к началу
 Профиль Отправить личное сообщение  
 
   Похожие торренты   Автор   Торрент   Размер 
В этой теме нет новых непрочитанных сообщений. Красавица и чудовище / Beauty and the Beast [Мюзикл, фэнтези, мелодрама, 2017] BDRip, Dub [Лицензия]

salma3

322 | 82

2.18 ГБ

В этой теме нет новых непрочитанных сообщений. Красавица и чудовище / Beauty and the Beast [Мюзикл, фэнтези, мелодрама, 2017] BDRip 1080p, Dub [Лицензия]

salma3

413 | 785

8.38 ГБ

В этой теме нет новых непрочитанных сообщений. Красавица и чудовище / Beauty and the Beast [Мюзикл, фэнтези, мелодрама, 2017] BDRip 720p, Dub [Лицензия]

salma3

318 | 579

4.77 ГБ

В этой теме нет новых непрочитанных сообщений. Красавица и чудовище / Beauty and the Beast [Мюзикл, фэнтези, мелодрама, 2017] BDRip 1080p, Dub [Лицензия] [3D-Video]

salma3

75 | 117

9.26 ГБ

В этой теме нет новых непрочитанных сообщений. Красавица и чудовище / Beauty and the Beast [Мюзикл, фэнтези, мелодрама, 2017] BDRemux 1080p, Dub [Лицензия]

salma3

0 | 197

26.95 ГБ

В этой теме нет новых непрочитанных сообщений. Красавица и чудовище / Beauty and the Beast [Мюзикл, фэнтези, мелодрама, 2017] BDRip, Dub [iTunes]

salma3

13592 | 2176

1.46 ГБ

В этой теме нет новых непрочитанных сообщений. Красавица и чудовище / Beauty and the Beast [Мюзикл, фэнтези, мелодрама, семейный, 2017] DVD5, Dub

salma3

95 | 28

4.37 ГБ


СообщениеДобавлено: 24 июн 2017, 12:16 

Не в сети
Супермодератор
Аватара пользователя
Дата регистрации:
15 фев 2012, 16:44
Возраст: 28
Спасибо: 7163 / 2147
Сообщения: 61793
salma3 писал(а):
Re: Красавица и чудовище / Beauty and the Beast [Мюзикл, фэнтези, мелодрама, 2017] BDRip-AVC, Dub [Лицензия]

_________________
Проголосуй за трекер Открытый торрент трекер - RUS-MEDIA.ORG

Проголосуй Открытый торрент трекер - RUS-MEDIA.ORG


Вернуться к началу
 Профиль Отправить личное сообщение  
 
Начать новую тему Ответить на тему  [ Сообщений: 2 ] 




Для Мосгорсуда, Роскомнадзора и рекламодателей:: mosgorsud-torrent[собачка]yandex.ru
cron