Торрент файл
скачать торрент магнет ссылка Добавлен: 21 май 2017, 21:02
Размер: 1.76 ГБ
Сидеров: 125
Личеров: 138
Статус: (salma3)
Автор

СообщениеДобавлено: 21 май 2017, 21:02 

Не в сети
Супермодератор
Аватара пользователя
Дата регистрации:
15 фев 2012, 16:44
Возраст: 28
Спасибо: 6672 / 2146
Сообщения: 46181
Год выпуска: 2017
Жанр: Комедия
Режиссер: Одри Дана

В ролях: Одри Дана, Кристиан Клавье, Эрик Элмоснино, Алис Белаиди, Антуан Гуи, Жозефин Дрэй, Виктуар Брюнелль-Реми, Эрик Да Коста, Джонатан Луис

О фильме:
Жанне настолько не везет с мужчинами, что она сгоряча клянется не иметь с ними больше никаких дел. Каково же ее изумление, когда однажды она просыпается с мужским достоинством между ног! Отныне ее жизнь превращается в нескончаемую череду невероятных происшествий.



Страна: Франция
Продолжительность: 01:38:11
Перевод: Профессиональный (многоголосый, закадровый) [iTunes]

Качество: WEB-DLRip-AVC
Видео: AVC, 1024x576 (16:9), 2453 kbps, 24 fps, 0,173 bpp
Аудио: русский / AAC LC / 2.0 / 48 kHz / 160 kbps |MVO|
Навигация по главам: есть

Сэмпл

Общее
Уникальный идентификатор : 227746359590556195749826962280102871812 (0xAB565A7632C6621483B7797563A1C304)
Полное имя : E:Esli.b.ya.byla.muzhchinoj.2017.WEB-DLRip.AVC.R.G.Resident.mkv
Формат : Matroska
Версия формата : Version 4 / Version 2
Размер файла : 1,76 Гбайт
Продолжительность : 1 ч. 38 м.
Общий поток : 2563 Кбит/сек
Название фильма : Если б я была мужчиной / Si j'étais un homme (2017) WEB-DLRip-AVC от R.G. Resident
Дата кодирования : UTC 2017-05-21 15:41:43
Программа кодирования : mkvmerge v12.0.0 ('Trust / Lust') 64bit
Библиотека кодирования : libebml v1.3.4 + libmatroska v1.4.5

Видео
Идентификатор : 1
Формат : AVC
Формат/Информация : Advanced Video Codec
Профиль формата : High@L4.1
Параметр CABAC формата : Да
Параметр ReFrames формата : 9 кадров
Идентификатор кодека : V_MPEG4/ISO/AVC
Продолжительность : 1 ч. 38 м.
Битрейт : 2453 Кбит/сек
Ширина : 1024 пикселя
Высота : 576 пикселей
Соотношение сторон : 16:9
Режим частоты кадров : Постоянный
Частота кадров : 24,000 кадра/сек
Цветовое пространство : YUV
Субдискретизация насыщенности : 4:2:0
Битовая глубина : 8 бит
Тип развёртки : Прогрессивная
Бит/(Пиксели*Кадры) : 0.173
Размер потока : 1,67 Гбайт (95%)
Заголовок : -Lexx-
Библиотека кодирования : x264 core 146 r2538 121396c
Настройки программы : cabac=1 / ref=9 / deblock=1:-2:-1 / analyse=0x3:0x113 / me=umh / subme=11 / psy=1 / psy_rd=1.00:0.00 / mixed_ref=1 / me_range=48 / chroma_me=1 / trellis=2 / 8x8dct=1 / cqm=0 / deadzone=21,11 / fast_pskip=0 / chroma_qp_offset=-2 / threads=6 / lookahead_threads=1 / sliced_threads=0 / nr=0 / decimate=0 / interlaced=0 / bluray_compat=0 / constrained_intra=0 / bframes=10 / b_pyramid=2 / b_adapt=2 / b_bias=0 / direct=3 / weightb=1 / open_gop=0 / weightp=2 / keyint=240 / keyint_min=24 / scenecut=40 / intra_refresh=0 / rc_lookahead=40 / rc=2pass / mbtree=0 / bitrate=2453 / ratetol=1.0 / qcomp=0.60 / qpmin=0 / qpmax=69 / qpstep=4 / cplxblur=20.0 / qblur=0.5 / vbv_maxrate=50000 / vbv_bufsize=62500 / nal_hrd=none / filler=0 / ip_ratio=1.40 / pb_ratio=1.30 / aq=1:1.00
Язык : English
Default : Да
Forced : Нет

Аудио
Идентификатор : 2
Формат : AAC
Формат/Информация : Advanced Audio Codec
Профиль формата : LC
Идентификатор кодека : A_AAC
Продолжительность : 1 ч. 38 м.
Битрейт : 123 Кбит/сек
Каналы : 2 канала
Расположение каналов : Front: L R
Частота : 48,0 КГц
Частота кадров : 46,875 кадров/сек (1024 spf)
Метод сжатия : С потерями
Размер потока : 86,1 Мбайт (5%)
Заголовок : [MVO] AAC 2.0 @ 160 kbps
Язык : Russian
Default : Да
Forced : Нет

Меню
00:00:00.000 : en:Глава 1
00:02:02.416 : en:Глава 2
00:07:26.291 : en:Глава 3
00:12:36.666 : en:Глава 4
00:16:47.166 : en:Глава 5
00:22:58.207 : en:Глава 6
00:28:52.082 : en:Глава 7
00:35:38.498 : en:Глава 8
00:40:29.373 : en:Глава 9
00:46:08.498 : en:Глава 10
00:52:25.873 : en:Глава 11
00:57:29.748 : en:Глава 12
01:03:15.373 : en:Глава 13
01:08:46.998 : en:Глава 14
01:14:49.373 : en:Глава 15
01:22:20.914 : en:Глава 16
01:29:03.455 : en:Глава 17
01:33:09.496 : en:Глава 18

Релиз от:


_________________
Проголосуй за трекер Открытый торрент трекер - RUS-MEDIA.ORG

Проголосуй Открытый торрент трекер - RUS-MEDIA.ORG



реклама партнёра


Вернуться к началу
 Профиль Отправить личное сообщение  
 
   Похожие торренты   Автор   Торрент   Размер 
В этой теме нет новых непрочитанных сообщений. Если б я была мужчиной / Si j'étais un homme [Комедия, 2017] WEB-DLRip, Mvo [iTunes]

salma3

6931 | 2101

1.46 ГБ

В этой теме нет новых непрочитанных сообщений. Если б я была мужчиной / Si j'étais un homme [Комедия, 2017] WEB-DL 1080p, Mvo [iTunes]

salma3

1625 | 1036

3.65 ГБ

В этой теме нет новых непрочитанных сообщений. Любовь не по размеру / Un homme à la hauteur [Комедия, 2016] HDRip, Dub [iTunes]

marya111

239 | 28

2.05 ГБ

В этой теме нет новых непрочитанных сообщений. Любовь не по размеру / Un homme à la hauteur [Комедия, 2016] BDRemux 1080p, Dub [iTunes]

marya111

34 | 9

18.34 ГБ

В этой теме нет новых непрочитанных сообщений. Любовь не по размеру / Un homme à la hauteur (Лоран Тирар / Laurent Tirard) [2016г., Франция, комедия, WEB-DLRip] Dub

Alfredovich

125 | 1

1.45 ГБ

В этой теме нет новых непрочитанных сообщений. Напарник [Комедия, 2017] WEB-DLRip-AVC [iTunes]

salma3

479 | 100

1.55 ГБ

В этой теме нет новых непрочитанных сообщений. Напарник [Комедия, 2017] WEB-DLRip [iTunes]

salma3

7093 | 685

1.46 ГБ


Начать новую тему Ответить на тему  [ 1 сообщение ] 




Для Мосгорсуда, Роскомнадзора и рекламодателей:: mosgorsud-torrent[собачка]yandex.ru