Торрент файл
скачать торрент магнет ссылка Добавлен: 15 май 2017, 10:37
Размер: 2.18 ГБ
Сидеров: 24
Личеров: 10
Статус: (salma3)
Автор

СообщениеДобавлено: 15 май 2017, 10:37 

Не в сети
Супермодератор
Аватара пользователя
Дата регистрации:
15 фев 2012, 16:44
Возраст: 29
Спасибо: 7380 / 2147
Сообщения: 76240
Год выхода: 1976
Жанр: криминал
Режиссер: Марио Импероли

В ролях: Пьеро Санти, Аннарита Граппуто, Паола Сенаторе, Сезаре Барро, Луис Ла Торре, Глория Пьедимонте, Марио Фарезе, Сильвия Спиноззи, Марио Новелли, Анна Курти

О фильме:
Двое молодых людей и девушка грабят и убивают богатых бизнесменов. Полицейский детектив идет по следу, но никак не может выйти на преступников. Но постепенно он понимает, что убийцы находятся гораздо ближе, чем он думает: один из них является сыном местного богатея. Но доказать его вину очень непростая задача, ибо эти люди не оставляют улик и убирают всех возможных свидетелей своих злодеяний. Постепенно молодые люди совсем борзеют и начинают упиваться насилием. Теперь они убивают не только ради денег, но и ради удовольствия...



Страна: Италия
Продолжительность: 01:37:46
Перевод: Авторский (одноголосый) [Антон Алексеев]

Файл
Видео: 1026x436 at 23.976 fps, High@L4.1, ~2809 kbps
Аудио#1: Russian: 48 kHz, AC3, 2/0 (L,R) ch, ~192.00 kbps avg |Одноголосый закадровый, А. Алексеев|
Аудио#2: Italian: 48 kHz, AC3, 2/0 (L,R) ch, ~192.00 kbps avg
Субтитры: нет
General
Unique ID : 10127959531850017804543710925469779153 (0x79E92F5307BF91F1AB40903C5D004D1)
Complete name : F:Как бешеные псы.(1976).BDRIP-AVC.[-=DoMiNo=-]..mkv
Format : Matroska
Format version : Version 4 / Version 2
File size : 2.18 GiB
Duration : 1 h 37 min
Overall bit rate : 3 198 kb/s
Movie name : Как бешеные псы
Deion : Двое молодых людей и девушка грабят и убивают богатых бизнесменов. Полицейский детектив идет по следу, но никак не может выйти на преступников. Но постепенно он понимает, что убийцы находятся гораздо ближе, чем он думает: один из них является сыном местного богатея. Но доказать его вину — очень непростая задача, ибо эти люди не оставляют улик и убирают всех возможных свидетелей своих злодеяний. Постепенно молодые люди совсем борзеют и начинают упиваться насилием. Теперь они убивают не только ради денег, но и ради удовольствия.
Writing application : XviD4PSP 7.0.382 DAILY
Writing library : Lavf57.41.100
Attachments : poster.jpg
ACTORS : Piero Santi, Annarita Grapputo, Паола Сенаторе, Сезаре Барро, Луис Ла Торре, Глория Пьедимонте, Марио Фарезе, Silvia Spinozzi, Марио Новелли, Анна Курти, Пьетро Плинио Кинци, Паоло Карлини, Calogero Azzaretto, Массимо Чипрари, Лина Франки, Романо Милани, Лучано Дзанусси
COMPOSER : Mario Molini
COUNTRY : Италия
DATE : 1976
DIRECTOR : Mario Imperoli
ENCODING_INFO : BluRay > MKV / H264 > X264 VBR-2P 2809kbps Произвольный / AC3 > COPY Безопасное / DTS-HD MA > AC3 CBR 192kbps
GENRE : криминал
HD_VIDEO : 1
IMDB_RATING : 6.60
MEDIA_TYPE : 9
ORIGINAL_TITLE : Come cani arrabbiati
WRITER : Mario Imperoli, Пьеро Реньоли
Video
ID : 1
Format : AVC
Format/Info : Advanced Video Codec
Format profile : High@L4.1
Format settings, CABAC : Yes
Format settings, ReFrames : 12 frames
Codec ID : V_MPEG4/ISO/AVC
Duration : 1 h 37 min
Bit rate : 2 809 kb/s
Width : 1 026 pixels
Height : 436 pixels
Display aspect ratio : 2.35:1
Frame rate mode : Constant
Frame rate : 23.976 (24000/1001) FPS
Color space : YUV
Chroma subsampling : 4:2:0
Bit depth : 8 bits
Scan type : Progressive
Bits/(Pixel*Frame) : 0.262
Stream size : 1.88 GiB (86%)
Title : RIP_BY_-=DoMiNo=-
Writing library : x264 core 148 r2762M 90a61ec
Encoding settings : cabac=1 / ref=12 / deblock=1:-3:-3 / analyse=0x3:0x133 / me=umh / subme=11 / psy=1 / psy_rd=1.00:0.10 / mixed_ref=1 / me_range=56 / chroma_me=1 / trellis=2 / 8x8dct=1 / cqm=0 / deadzone=21,11 / fast_pskip=0 / chroma_qp_offset=-3 / threads=6 / lookahead_threads=1 / sliced_threads=0 / nr=0 / decimate=1 / interlaced=0 / bluray_compat=0 / constrained_intra=0 / bframes=11 / b_pyramid=2 / b_adapt=2 / b_bias=0 / direct=3 / weightb=1 / open_gop=0 / weightp=2 / keyint=230 / keyint_min=23 / scenecut=40 / intra_refresh=0 / rc=2pass / mbtree=0 / bitrate=2809 / ratetol=1.0 / qcomp=0.65 / qpmin=0 / qpmax=69 / qpstep=4 / cplxblur=20.0 / qblur=0.5 / ip_ratio=1.40 / pb_ratio=1.30 / aq=1:1.00
Default : Yes
Forced : No
Color range : Limited
Color primaries : BT.709
Transfer characteristics : BT.709
Matrix coefficients : BT.709
DURATION : 01:37:45.485000000
Audio #1
ID : 2
Format : AC-3
Format/Info : Audio Coding 3
Format settings, Endianness : Big
Codec ID : A_AC3
Duration : 1 h 37 min
Bit rate mode : Constant
Bit rate : 192 kb/s
Channel(s) : 2 channels
Channel positions : Front: L R
Sampling rate : 48.0 kHz
Frame rate : 31.250 FPS (1536 spf)
Bit depth : 16 bits
Compression mode : Lossy
Stream size : 134 MiB (6%)
Title : Авторский (одноголосый) Антон Алексеев
Language : Russian
Service kind : Complete Main
Default : Yes
Forced : No
DURATION : 01:37:45.536000000
Audio #2
ID : 3
Format : AC-3
Format/Info : Audio Coding 3
Format settings, Endianness : Big
Codec ID : A_AC3
Duration : 1 h 37 min
Bit rate mode : Constant
Bit rate : 192 kb/s
Channel(s) : 2 channels
Channel positions : Front: L R
Sampling rate : 48.0 kHz
Frame rate : 31.250 FPS (1536 spf)
Bit depth : 16 bits
Compression mode : Lossy
Stream size : 134 MiB (6%)
Title : ITA
Language : Italian
Service kind : Complete Main
Default : No
Forced : No
DURATION : 01:37:45.536000000
Menu
00:00:00.000 : :Глава 1
00:03:56.152 : :Глава 2
00:09:31.654 : :Глава 3
00:14:14.061 : :Глава 4
00:20:07.580 : :Глава 5
00:25:56.221 : :Глава 6
00:29:12.167 : :Глава 7
00:35:42.598 : :Глава 8
00:47:32.431 : :Глава 9
00:55:22.694 : :Глава 10
00:58:35.845 : :Глава 11
01:03:25.468 : :Глава 12
01:11:41.005 : :Глава 13
01:18:00.801 : :Глава 14
01:25:22.742 : :Глава 15
01:31:59.972 : :Глава 16
01:37:44.733 : :Глава 17


_________________
Проголосуй за трекер Открытый торрент трекер - RUS-MEDIA.ORG

Проголосуй Открытый торрент трекер - RUS-MEDIA.ORG


Вернуться к началу
 Профиль Отправить личное сообщение  
 
   Похожие торренты   Автор   Торрент   Размер 
В этой теме нет новых непрочитанных сообщений. Как бешеные псы / Come cani arrabbiati [криминал, 1976] BDRip, Avo

salma3

23 | 9

1.45 ГБ

В этой теме нет новых непрочитанных сообщений. Как бешеные псы / Come cani arrabbiati [криминал, 1976] BDRip 720p, Avo

salma3

32 | 9

6.83 ГБ

В этой теме нет новых непрочитанных сообщений. Как бешеные псы / Come cani arrabbiati [криминал, 1976] DVDRip, Avo

salma3

179 | 45

1.37 ГБ

В этой теме нет новых непрочитанных сообщений. Бешеные гонки / Drive Hard (Брайан Тренчард-Смит) [боевик, криминал, комедия, 2014] BDRip 720p, mvo [официльное]

Dracon

695 | 72

4.48 ГБ

В этой теме нет новых непрочитанных сообщений. Бешеные псы / Mad Dogs [S01] [Драма, комедия, криминал, 2016] WEB-DL 720p [IdeaFilm]

Dracon

152 | 125

24.66 ГБ

В этой теме нет новых непрочитанных сообщений. Бешеные псы / Reservoir Dogs [триллер, драма, криминал, 1992] BDRemux 1080p, Mvo

salma3

7 | 12

24.42 ГБ

В этой теме нет новых непрочитанных сообщений. Бешеные псы / Mad Dogs [S01] [драма, комедия, криминал, 2016] WEB-DLRip 1080p, Mvo [NewStudio]

salma3

0 | 0

42.56 ГБ


Начать новую тему Ответить на тему  [ 1 сообщение ] 




Для Мосгорсуда, Роскомнадзора и рекламодателей:: mosgorsud-torrent[собачка]yandex.ru
cron