Торрент файл
скачать торрент магнет ссылка Добавлен: 09 май 2017, 20:48
Размер: 1.45 ГБ
Сидеров: 74
Личеров: 21
Статус: (salma3)
Автор

СообщениеДобавлено: 09 май 2017, 20:48 

Не в сети
Супермодератор
Аватара пользователя
Дата регистрации:
15 фев 2012, 16:44
Возраст: 28
Спасибо: 6487 / 2129
Сообщения: 41182
Год выхода: 2001
Жанр: мелодрама, комедия, приключения
Режиссер: Блэр Хэйес

В ролях: Джейк Джилленхол, Свузи Кёрц, Марли Шелтон, Дэнни Трехо, Джон Кэрролл Линч, Верн Тройер, Дейв Шеридан, Брайан Джордж, Патрик Крэншо, Стивен Спинелла

О фильме:
Человек не должен существовать, отгородившись от всего мира. Если, конечно, он не Джимми Ливингстон, единственный парень на Земле, родившийся с неработающей имунной системой. Один микроб — и Джимми конец. Поэтому живет он в пузыре из герметичного пластика с прозрачными стенками, обеспечивающем ему островок полной стерильности. Однажды Ливингстон влюбился в свою соседку Хло. Но, увы, Хло собирается сочетаться браком с другим — за много миль от пластиковой тюрьмы героя. Но Джимми, презрев опасности, в специальном скафандре храбро отправляется в путешествие — через всю страну, чтобы успеть сообщить о своих чувствах любимой до того, как та совершит роковую ошибку.



Страна: США
Студия: Bandeira Entertainment, Germ Free Productions, Touchstone Pictures
Продолжительность: 01:23:42
Перевод: Профессиональный многоголосный, закадровый [СТС]

Файл
Кодек: H.264
Качество: WEBRIP-AVC
Видео:High@L4.1 / ~2034 kbps / 1036x438 / 23.976 fps
Звук: AC3 / 5.1 / 48 kHz / 448 kbps (MVO CTC)
Субтитры: Russian, english (SDH)

General
Unique ID : 243222870266049007168539474475491173762 (0xB6FB0559BC87FFBDD6883132AE0AA582)
Complete name : F:Парень из пузыря.(2001).WEB_RIP-AVC.[-=DoMiNo=-].mkv
Format : Matroska
Format version : Version 4 / Version 2
File size : 1.45 GiB
Duration : 1 h 23 min
Overall bit rate : 2 484 kb/s
Movie name : Парень из пузыря
Deion : Человек не должен существовать, отгородившись от всего мира. Если, конечно, он не Джимми Ливингстон, единственный парень на Земле, родившийся с неработающей имунной системой. Один микроб — и Джимми конец.Поэтому живет он в пузыре из герметичного пластика с прозрачными стенками, обеспечивающем ему островок полной стерильности. Однажды Ливингстон влюбился в свою соседку Хло. Но, увы, Хло собирается сочетаться браком с другим — за много миль от пластиковой тюрьмы героя.Но Джимми, презрев опасности, в специальном скафандре храбро отправляется в путешествие — через всю страну, чтобы успеть сообщить о своих чувствах любимой до того, как та совершит роковую ошибку.
Writing application : XviD4PSP 7.0.381 DAILY
Writing library : Lavf57.41.100
Attachments : poster.jpg
ACTORS : Джейк Джилленхол, Свузи Кёрц, Марли Шелтон, Дэнни Трехо, Джон Кэрролл Линч, Верн Тройер, Дейв Шеридан, Брайан Джордж, Патрик Крэншо, Стивен Спинелла, Эвер Кэррадайн, Джеффри Аренд, Битлджюс, Мэттью МакГрори, Бонни Морган, Джейсон Склар, Рэнди Склар, Пин Ву, Зак Галифианакис, Боти Блисс, Пабло Шрайбер, Брайан Гаттас, Синко Пол, Кен Даурио, Малик Туре, Лео Фицпатрик, Дж.П. Коу, Р.Дж. Дарелл, Брайан Фридман, Арден Майрин, Мерл Кеннеди, Шули Коуэн, Алисия Гилли, Мэнди Мур, Митч Хоуллман, Алекс Блэк, Тони Блэк, Роберт Бэйли мл., Оливер Кайндред, Брэндон де Пол, Стив Ван Уормер, Э.Дж. Каллахан, Чарли Делл, Майкл Лопрете, Чарльз Ноуленд, Эмили Стюарт, Пэтти Тирс, Гари Баллок, Сьюзэн Хоук, Стивен Энтони Лоуренс, Раджа Финск, Клео Кинг, Роберт ЛаСардо, Джорджи Коттини, Минди МакКаллум, Стэйси Кейблер, Фабио, Сийя Баттен, Бьянка Баттхол, Карина Доун, Род ДеОсера, Charles M. Kerper, Кэти Ломанн, Дэниэл Мэндер, Хейли С. Розалес, Луис Э. Росас, Майкл А. Тессиеро, Кэл Томас, Кевин «Репо» Томас, Дженна З. Уилсон
COMPOSER : Джон Оттмен
COUNTRY : США
DATE : 2001
DIRECTOR : Блэр Хэйес
ENCODING_INFO : MATROSKA,WEBM > MKV / H264 > X264 VBR-2P 2034kbps Произвольный / AC3 > COPY Безопасное
GENRE : фантастика, мелодрама, комедия, приключения
HD_VIDEO : 1
IMDB_RATING : 5.60
ITUNEXTC : mpaa|PG-13|300|
MEDIA_TYPE : 9
ORIGINAL_TITLE : Bubble Boy
PRODUCER : Бо Флинн, Эрик МакЛеод
RATING : 6.293
WRITER : Синко Пол, Кен Даурио

Video
ID : 1
Format : AVC
Format/Info : Advanced Video Codec
Format profile : [email protected]
Format settings, CABAC : Yes
Format settings, ReFrames : 11 frames
Codec ID : V_MPEG4/ISO/AVC
Duration : 1 h 23 min
Bit rate : 2 034 kb/s
Width : 1 036 pixels
Height : 438 pixels
Display aspect ratio : 2.35:1
Frame rate mode : Constant
Frame rate : 23.976 (24000/1001) FPS
Color space : YUV
Chroma subsampling : 4:2:0
Bit depth : 8 bits
Scan type : Progressive
Bits/(Pixel*Frame) : 0.187
Stream size : 1.16 GiB (80%)
Title : RIP_BY_-=DoMiNo=-
Writing library : x264 core 148 r2762M 90a61ec
Encoding settings : cabac=1 / ref=11 / deblock=1:-3:-3 / analyse=0x3:0x133 / me=umh / subme=11 / psy=1 / psy_rd=1.00:0.10 / mixed_ref=1 / me_range=56 / chroma_me=1 / trellis=2 / 8x8dct=1 / cqm=0 / deadzone=21,11 / fast_pskip=0 / chroma_qp_offset=-3 / threads=5 / lookahead_threads=1 / sliced_threads=0 / nr=0 / decimate=1 / interlaced=0 / bluray_compat=0 / constrained_intra=0 / bframes=12 / b_pyramid=2 / b_adapt=2 / b_bias=0 / direct=3 / weightb=1 / open_gop=0 / weightp=2 / keyint=230 / keyint_min=23 / scenecut=40 / intra_refresh=0 / rc=2pass / mbtree=0 / bitrate=2034 / ratetol=1.0 / qcomp=0.65 / qpmin=0 / qpmax=69 / qpstep=4 / cplxblur=20.0 / qblur=0.5 / ip_ratio=1.40 / pb_ratio=1.30 / aq=1:1.00
Language : English
Default : Yes
Forced : No
Color range : Limited
Color primaries : BT.709
Transfer characteristics : BT.709
Matrix coefficients : BT.709
DURATION : 01:23:40.224000000

Audio
ID : 2
Format : AC-3
Format/Info : Audio Coding 3
Format settings, Endianness : Big
Codec ID : A_AC3
Duration : 1 h 23 min
Bit rate mode : Constant
Bit rate : 448 kb/s
Channel(s) : 6 channels
Channel positions : Front: L C R, Side: L R, LFE
Sampling rate : 48.0 kHz
Frame rate : 31.250 FPS (1536 spf)
Bit depth : 16 bits
Compression mode : Lossy
Stream size : 268 MiB (18%)
Title : MVO CTC
Language : Russian
Service kind : Complete Main
Default : Yes
Forced : No
DURATION : 01:23:40.224000000

Text #1
ID : 3
Format : UTF-8
Codec ID : S_TEXT/UTF8
Codec ID/Info : UTF-8 Plain Text
Title : full
Language : Russian
Default : Yes
Forced : No
DURATION : 01:23:29.837000000

Text #2
ID : 4
Format : UTF-8
Codec ID : S_TEXT/UTF8
Codec ID/Info : UTF-8 Plain Text
Title : SDH
Language : English
Default : No
Forced : No
DURATION : 01:23:28.969000000

Menu
00:00:00.000 : :Opening Title/Gift Wrapped From Heaven
00:04:25.000 : :The Girl Next Door
00:11:03.000 : :Mark
00:17:54.000 : :Out in the World
00:20:29.000 : :Bright and Shiny
00:25:32.000 : :Chosen Vato
00:31:16.000 : :Las Vegas
00:35:18.000 : :Dr. Phreak
00:39:56.000 : :Ice Cream and Curry
00:50:50.000 : :Five Hundred Dollars
00:58:28.000 : :No Regrets
01:06:19.000 : :The Chase
01:10:51.000 : :Jimmy & Chloe
01:17:11.000 : :End Credits


_________________
Проголосуй за трекер Открытый торрент трекер - RUS-MEDIA.ORG

Проголосуй Открытый торрент трекер - RUS-MEDIA.ORG



реклама партнёра


Вернуться к началу
 Профиль Отправить личное сообщение  
 
   Похожие торренты   Автор   Торрент   Размер 
В этой теме нет новых непрочитанных сообщений. Парень из пузыря / Bubble Boy [мелодрама, комедия, приключения, 2001] WEBRip 1080p, Mvo [СТС]

salma3

79 | 58

8.12 ГБ

В этой теме нет новых непрочитанных сообщений. Парень из пузыря / Bubble Boy [мелодрама, комедия, приключения, 2001] WEB-DL 720p, Mvo

salma3

59 | 33

2.86 ГБ

В этой теме нет новых непрочитанных сообщений. Хороший парень [01-20 из 20] [Мелодрама, 2017] WEBRip 1080p

salma3

4 | 5

28.53 ГБ

В этой теме нет новых непрочитанных сообщений. Хороший парень [01-20 из 20] [Мелодрама, 2017] WEBRip 720p

salma3

24 | 15

14.58 ГБ

В этой теме нет новых непрочитанных сообщений. Флирт со зверем / Someone Like You.. [Мелодрама, комедия, экранизация, 2001] WEBRip 1080p, Mvo+Sub

salma3

34 | 37

9.31 ГБ

В этой теме нет новых непрочитанных сообщений. Приключения Джо Грязнули / Joe Dirt [Комедия, мелодрама, приключения, детектив, 2001] BDRip 1080p, Mvo

salma3

37 | 5

8.14 ГБ

В этой теме нет новых непрочитанных сообщений. Мой парень – киллер / Mr. Right [Боевик, комедия, мелодрама, 2015] BDRip, Avo

salma3

1388 | 273

1.46 ГБ


Начать новую тему Ответить на тему  [ 1 сообщение ] 




Для Мосгорсуда, Роскомнадзора и рекламодателей:: mosgorsud-torrent[собачка]yandex.ru