Торрент файл
скачать торрент магнет ссылка Добавлен: 06 май 2017, 12:13
Размер: 3.52 ГБ
Сидеров: 90
Личеров: 14
Статус: (salma3)
Автор

СообщениеДобавлено: 06 май 2017, 12:13 

Не в сети
Супермодератор
Аватара пользователя
Дата регистрации:
15 фев 2012, 16:44
Возраст: 28
Спасибо: 6468 / 2129
Сообщения: 40639
Год выхода: 1998
Жанр: драма, мелодрама, вестерн
Режиссер: Стивен Фрирз

В ролях: Билли Крудап, Вуди Харрельсон, Пенелопа Крус, Патриция Аркетт, Розалин Линехэн, Коул Хаузер, Энрике Кастильо, Даррен Э. Берроуз, Джейкоб Варгас, Роберт Нотт, Сэм Эллиотт, ...

О фильме: Пит Калдер и Мэтсон — друзья не разлей вода. После окончания Второй мировой, оба возвратились домой. Пита ждала чудная, чистая, умная и любящая Джозефа, а он влюбился в femme fatale Мону — жену десятника, работавшего на самого богатого скотовода в Хай-Лоу. Оказалось, что и у Мэтсона с Моной серьезный роман…



Страна: Великобритания, Германия, США
Продолжительность: 01:49:54
Перевод: Профессиональный (многоголосый, закадровый) DVD Group R5 от «Настроение Video»
- Профессиональный (многоголосый, закадровый) Фортуна-Фильм с VHS от «Союз Видео»

Кодек: x264
Качество: DVDRip-AVC
Видео: 1020x432, 3500 kbps, 25 fps
Аудио #1: AC-3, 6 ch, 448 kbps (Rus) - MVO DVD Group
Аудио #2: AC-3, 2 ch, 192 kbps (Rus) - MVO Фортуна-Фильм
Аудио #3: AC-3, 6 ch, 448 kbps (Eng)
Субтитры: Русские, Английские

За исходник спасибо - IVH
x264 [info]: frame I:1081 Avg QP:14.22 size: 62226
x264 [info]: frame P:33963 Avg QP:16.57 size: 31938
x264 [info]: frame B:129806 Avg QP:18.46 size: 13349
x264 [info]: consecutive B-frames: 1.3% 2.2% 7.5% 17.0% 16.0% 45.4% 5.9% 3.2% 0.9% 0.5% 0.2% 0.1% 0.0%
Общее
Уникальный идентификатор : 181806697918958573607033891938084488134 (0x88C6B244BABF6A2CBBDA26A3A28283C6)
Полное имя : Страна холмов и долин (The Hi-Lo Country) 1998 DVDRip.mkv
Формат : Matroska
Версия формата : Version 2
Размер файла : 3,52 Гбайт
Продолжительность : 1 ч. 49 м.
Общий поток : 4590 Кбит/сек
Дата кодирования : UTC 2017-05-04 11:21:49
Программа кодирования : mkvmerge v4.0.0 ('The Stars were mine') сборка от Jun 6 2010 16:18:42
Библиотека кодирования : libebml v1.0.0 + libmatroska v1.0.0
Видео
Идентификатор : 1
Формат : AVC
Формат/Информация : Advanced Video Codec
Профиль формата : High@L4.1
Параметр CABAC формата : Да
Параметр ReFrames формата : 12 кадров
Идентификатор кодека : V_MPEG4/ISO/AVC
Продолжительность : 1 ч. 49 м.
Битрейт : 3500 Кбит/сек
Ширина : 1020 пикселей
Высота : 432 пикселя
Соотношение сторон : 2,35:1
Режим частоты кадров : Постоянный
Частота кадров : 25,000 кадров/сек
Цветовое пространство : YUV
Субдискретизация насыщенности : 4:2:0
Битовая глубина : 8 бит
Тип развёртки : Прогрессивная
Бит/(Пиксели*Кадры) : 0.318
Размер потока : 2,62 Гбайт (74%)
Библиотека кодирования : x264 core 146 r2538 121396c
Настройки программы : cabac=1 / ref=12 / deblock=1:-1:-1 / analyse=0x3:0x133 / me=umh / subme=11 / psy=1 / psy_rd=1.00:0.00 / mixed_ref=1 / me_range=32 / chroma_me=1 / trellis=2 / 8x8dct=1 / cqm=0 / deadzone=21,11 / fast_pskip=0 / chroma_qp_offset=-2 / threads=12 / lookahead_threads=2 / sliced_threads=0 / nr=0 / decimate=0 / interlaced=0 / bluray_compat=0 / constrained_intra=0 / bframes=12 / b_pyramid=2 / b_adapt=2 / b_bias=0 / direct=3 / weightb=1 / open_gop=0 / weightp=2 / keyint=250 / keyint_min=25 / scenecut=40 / intra_refresh=0 / rc=2pass / mbtree=0 / bitrate=3500 / ratetol=1.0 / qcomp=0.60 / qpmin=0 / qpmax=69 / qpstep=4 / cplxblur=20.0 / qblur=0.5 / ip_ratio=1.40 / pb_ratio=1.30 / aq=1:0.80
Язык : English
Default : Нет
Forced : Нет
Аудио #1
Идентификатор : 2
Формат : AC-3
Формат/Информация : Audio Coding 3
Расширение режима : CM (complete main)
Параметр Endianness формата : Big
Идентификатор кодека : A_AC3
Продолжительность : 1 ч. 49 м.
Вид битрейта : Постоянный
Битрейт : 448 Кбит/сек
Каналы : 6 каналов
Расположение каналов : Front: L C R, Side: L R, LFE
Частота : 48,0 КГц
Частота кадров : 31,250 кадров/сек (1536 spf)
Метод сжатия : С потерями
Размер потока : 352 Мбайт (10%)
Заголовок : MVO DVD Group (R5 «Настроение Video»)
Язык : Russian
Default : Нет
Forced : Нет
Аудио #2
Идентификатор : 3
Формат : AC-3
Формат/Информация : Audio Coding 3
Профиль формата : Dolby Digital
Расширение режима : CM (complete main)
Параметр Endianness формата : Big
Идентификатор кодека : A_AC3
Продолжительность : 1 ч. 49 м.
Вид битрейта : Постоянный
Битрейт : 192 Кбит/сек
Каналы : 2 канала
Расположение каналов : Front: L R
Частота : 48,0 КГц
Частота кадров : 31,250 кадров/сек (1536 spf)
Метод сжатия : С потерями
Размер потока : 151 Мбайт (4%)
Заголовок : MVO Фортуна-Фильм (VHS от «Союз Видео»)
Язык : Russian
Default : Нет
Forced : Нет
Аудио #3
Идентификатор : 4
Формат : AC-3
Формат/Информация : Audio Coding 3
Расширение режима : CM (complete main)
Параметр Endianness формата : Big
Идентификатор кодека : A_AC3
Продолжительность : 1 ч. 49 м.
Вид битрейта : Постоянный
Битрейт : 448 Кбит/сек
Каналы : 6 каналов
Расположение каналов : Front: L C R, Side: L R, LFE
Частота : 48,0 КГц
Частота кадров : 31,250 кадров/сек (1536 spf)
Метод сжатия : С потерями
Размер потока : 352 Мбайт (10%)
Язык : English
Default : Нет
Forced : Нет
Текст #1
Идентификатор : 5
Формат : UTF-8
Идентификатор кодека : S_TEXT/UTF8
Идентификатор кодека/Информация : UTF-8 Plain Text
Язык : Russian
Default : Нет
Forced : Нет
Текст #2
Идентификатор : 6
Формат : UTF-8
Идентификатор кодека : S_TEXT/UTF8
Идентификатор кодека/Информация : UTF-8 Plain Text
Язык : English
Default : Нет
Forced : Нет



_________________
Проголосуй за трекер Открытый торрент трекер - RUS-MEDIA.ORG

Проголосуй Открытый торрент трекер - RUS-MEDIA.ORG



реклама партнёра


Вернуться к началу
 Профиль Отправить личное сообщение  
 
   Похожие торренты   Автор   Торрент   Размер 
В этой теме нет новых непрочитанных сообщений. Страна холмов и долин / The Hi-Lo Country [драма, мелодрама, вестерн, 1998] DVDRip-AVC, Mvo

salma3

38 | 24

2.18 ГБ

В этой теме нет новых непрочитанных сообщений. Чудесная страна / The Wonderful Country [Мелодрама, Вестерн, 1959] HDTVRip-AVC, Dvo [НТВ+]

salma3

23 | 8

1.46 ГБ

В этой теме нет новых непрочитанных сообщений. Счастливая страна / Lucky Country [Триллер, драма, вестерн, история, 2009] WEB-DLRip, Dvo

salma3

32 | 4

1.47 ГБ

В этой теме нет новых непрочитанных сообщений. Следующая остановка – Страна чудес / Next Stop Wonderland [драма, мелодрама, комедия, 1998] DVDRip, Mvo

salma3

89 | 5

689.52 МБ

В этой теме нет новых непрочитанных сообщений. Северная страна / North Country [драма, 2005] WEB-DLRip, Mvo

salma3

10 | 9

1.46 ГБ

В этой теме нет новых непрочитанных сообщений. Северная страна / North Country [Драма, 2005] WEB-DLRip-AVC, Mvo

salma3

68 | 16

2.19 ГБ

В этой теме нет новых непрочитанных сообщений. Следующая остановка - Страна чудес / Next Stop Wonderland [драма, мелодрама, комедия, 1998] WEBRip, Dvo

salma3

124 | 52

1.45 ГБ


Начать новую тему Ответить на тему  [ 1 сообщение ] 




Для Мосгорсуда, Роскомнадзора и рекламодателей:: mosgorsud-torrent[собачка]yandex.ru