Торрент файл
скачать торрент магнет ссылка Добавлен: 21 апр 2017, 11:36
Размер: 1.46 ГБ
Сидеров: 95
Личеров: 24
Статус: (salma3)
Автор

СообщениеДобавлено: 21 апр 2017, 11:36 

Не в сети
Супермодератор
Аватара пользователя
Дата регистрации:
15 фев 2012, 16:44
Возраст: 29
Спасибо: 7379 / 2147
Сообщения: 76235
Год выпуска: 1985
Жанр: ужасы, фантастика, боевик
Режиссер: Тоуб Хупер

В ролях: Стив Рейлсбэк, Питер Фёрт, Фрэнк Финлей, Матильда Мэй, Патрик Стюарт, Майкл Гозард, Николас Болл, Обри Моррис, Нэнси Пол, Джон Хэллам

Описание:
Космическая экспедиция исследует комету Галлея и натыкается на новую форму разумной жизни — нечто вроде космических вампиров, вместо крови черпающих энергию из своих жертв. Забрав этих чудовищ в образах очень красивой обнаженной женщины и двух мужчин на борт, космонавты совершили страшную ошибку. Мало того, что все они, кроме Рэйлсбэка погибли, вампиры проникли на Землю, где начали массовую заготовку жизненной силы, забирая ее у людей, превращавшихся в нечто вроде зомби. Все это напоминает конец света.



Страна: Великобритания, США
Продолжительность: 01:56:15
Перевод: Профессиональный (двухголосый, закадровый)[TV1000 / SDI Media]

Формат: BDRip-AVC
Видео: 976x416 (2.35:1), 23.976 fps, AVC MPEG-4 (H.264), ~1605 kbps avg, 0.165 bit/pixel
Аудио: 48 kHz, AC3 Dolby Digital, 2/0 (L,R) ch, ~192 kbps avg

General
Unique ID : 225379630384292798066590158187426040592 (0xA98E89B3E4AE48EBB6E7A09AE5594B10)
Complete name : C:\Users\User\Downloads\Жизненная сила.1985.BDRip-AVC.DVO.[tfile.ru].mkv
Format : Matroska
Format version : Version 4 / Version 2
File size : 1.46 GiB
Duration : 1h 56mn
Overall bit rate : 1 798 Kbps
Movie name : Жизненная сила / Lifeforce (1985) BDRp-AVC | <VIRUS> [rutracker.org][All.Films][RG]
Encoded date : UTC 2015-05-04 16:52:46
Writing application : mkvmerge v7.5.0 ('Glass Culture') 32bit built on Jan 10 2015 09:41:31
Writing library : libebml v1.3.1 + libmatroska v1.4.2

Video
ID : 1
Format : AVC
Format/Info : Advanced Video Codec
Format profile :
Format settings, CABAC : Yes
Format settings, ReFrames : 10 frames
Codec ID : V_MPEG4/ISO/AVC
Duration : 1h 56mn
Bit rate : 1 605 Kbps
Width : 976 pixels
Height : 416 pixels
Display aspect ratio : 2.35:1
Frame rate mode : Constant
Frame rate : 23.976 (24000/1001) fps
Color space : YUV
Chroma subsampling : 4:2:0
Bit depth : 8 bits
Scan type : Progressive
Bits/(Pixel*Frame) : 0.165
Stream size : 1.30 GiB (89%)
Writing library : x264 core 144 r2525 40bb568
Encoding settings : cabac=1 / ref=10 / deblock=1:-2:-1 / analyse=0x3:0x113 / me=umh / subme=9 / psy=1 / psy_rd=1.00:0.00 / mixed_ref=1 / me_range=38 / chroma_me=1 / trellis=2 / 8x8dct=1 / cqm=0 / deadzone=21,11 / fast_pskip=0 / chroma_qp_offset=-2 / threads=6 / lookahead_threads=1 / sliced_threads=0 / nr=0 / decimate=0 / interlaced=0 / bluray_compat=0 / constrained_intra=0 / bframes=16 / b_pyramid=2 / b_adapt=2 / b_bias=0 / direct=3 / weightb=1 / open_gop=0 / weightp=2 / keyint=250 / keyint_min=23 / scenecut=40 / intra_refresh=0 / rc_lookahead=60 / rc=2pass / mbtree=1 / bitrate=1605 / ratetol=1.0 / qcomp=0.70 / qpmin=10 / qpmax=51 / qpstep=4 / cplxblur=20.0 / qblur=0.5 / vbv_maxrate=50000 / vbv_bufsize=62500 / nal_hrd=none / filler=0 / ip_ratio=1.20 / aq=3:1.00 / zones=162500,167233,q=30
Default : Yes
Forced : No

Audio
ID : 2
Format : AC-3
Format/Info : Audio Coding 3
Format profile : Dolby Digital
Mode extension : CM (complete main)
Format settings, Endianness : Big
Codec ID : A_AC3
Duration : 1h 56mn
Bit rate mode : Constant
Bit rate : 192 Kbps
Channel(s) : 2 channels
Channel positions : Front: L R
Sampling rate : 48.0 KHz
Frame rate : 31.250 fps (1536 spf)
Compression mode : Lossy
Stream size : 160 MiB (11%)
Title : DVO TV1000 / SDI Media
Language : Russian
Default : No
Forced : No




_________________
Проголосуй за трекер Открытый торрент трекер - RUS-MEDIA.ORG

Проголосуй Открытый торрент трекер - RUS-MEDIA.ORG


Вернуться к началу
 Профиль Отправить личное сообщение  
 
   Похожие торренты   Автор   Торрент   Размер 
В этой теме нет новых непрочитанных сообщений. Жизненная сила / Lifeforce [ужасы, фантастика, боевик, 1985] BDRip, Dvo

salma3

19 | 1

746.56 МБ

В этой теме нет новых непрочитанных сообщений. Жизненная сила / Lifeforce [Ужасы, фантастика, боевик, 1985] BDRip 1080p, Mvo

salma3

3 | 18

12.72 ГБ

В этой теме нет новых непрочитанных сообщений. Жизненная сила / Lifeforce [ужасы, фантастика, боевик, 1985] BDRip 720p, Mvo

salma3

92 | 35

5.37 ГБ

В этой теме нет новых непрочитанных сообщений. Реаниматор / Re-Animator [ужасы, фантастика, комедия, 1985] BDRip, Mvo

salma3

8 | 7

1.45 ГБ

В этой теме нет новых непрочитанных сообщений. Реаниматор / Re-Animator [Ужасы, фантастика, комедия, 1985] BDRip 720p, Mvo

salma3

0 | 0

4.37 ГБ

В этой теме нет новых непрочитанных сообщений. Реаниматор / Re-Animator [Ужасы, фантастика, 1985] BDRip 720p, Dvo [Integral Version]

salma3

0 | 0

9.68 ГБ

В этой теме нет новых непрочитанных сообщений. Реаниматор / Re-Animator [ужасы, фантастика, 1985] BDRip 1080p, Dvo [Integral Version]

salma3

0 | 0

10.3 ГБ


Начать новую тему Ответить на тему  [ 1 сообщение ] 




Для Мосгорсуда, Роскомнадзора и рекламодателей:: mosgorsud-torrent[собачка]yandex.ru
cron