Торрент файл
скачать торрент магнет ссылка Добавлен: 20 апр 2017, 12:39
Размер: 1.46 ГБ
Сидеров: 113
Личеров: 16
Статус: (salma3)
Автор

СообщениеДобавлено: 20 апр 2017, 12:39 

Не в сети
Супермодератор
Аватара пользователя
Дата регистрации:
15 фев 2012, 16:44
Возраст: 29
Спасибо: 7377 / 2147
Сообщения: 75909
Год выпуска: 2015
Жанр: драма, биография, спорт
Режиссер: Питер Ландесман

В ролях: Уилл Смит, Алек Болдуин, Альберт Брукс, Гугу Эмбата-Ро, Дэвид Морс, Арлисс Ховард, Майк О’Мэлли, Эдди Марсан, Хилл Харпер, Адевале Акинойе-Агбаже

Описание:
Америка потрясена чередой неожиданных и необъяснимых смертей знаменитых спортсменов. Разгадать загадку предстоит талантливому молодому нейрохирургу, но, как оказалось, не все готовы услышать жестокую правду…



Страна: Великобритания, Австралия, США
Продолжительность: 02:02:49
Перевод: Профессиональный (полное дублирование)

Формат: BDRip-AVC
Видео: 960x400 (2.40:1), 23.976 fps, AVC MPEG-4 (H.264), ~1254 kbps, 0.136 bit/pixel
Аудио: 48 kHz, AC3 Dolby Digital, 3/2 (L,C,R,l,r) + LFE ch, ~448 kbps
субтитры: русские

General
Unique ID : 182498590834231127643401458397622820529 (0x894BF33912A3AA838E49903B96F3DEB1)
Complete name : F:\Драма\Zachitnik.2015.RUS.BDRip.x264.-HELLYWOOD.mkv
Format : Matroska
Format version : Version 4 / Version 2
File size : 1.46 GiB
Duration : 2 h 2 min
Overall bit rate : 1 704 kb/s
Movie name : Concussion (2015)
Encoded date : UTC 2016-07-08 05:51:12
Writing application : mkvmerge v5.9.0 ('On The Loose') built on Dec 15 2012 16:39:58
Writing library : libebml v1.3.0 + libmatroska v1.4.0

Video
ID : 1
Format : AVC
Format/Info : Advanced Video Codec
Format profile :
Format settings, CABAC : Yes
Format settings, ReFrames : 12 frames
Codec ID : V_MPEG4/ISO/AVC
Duration : 2 h 2 min
Bit rate : 1 254 kb/s
Width : 960 pixels
Height : 400 pixels
Display aspect ratio : 2.40:1
Frame rate mode : Constant
Frame rate : 23.976 FPS
Color space : YUV
Chroma subsampling : 4:2:0
Bit depth : 8 bits
Scan type : Progressive
Bits/(Pixel*Frame) : 0.136
Stream size : 1.05 GiB (72%)
Title : potroks
Writing library : x264 core 146 r2538 121396c
Encoding settings : cabac=1 / ref=12 / deblock=1:-2:-2 / analyse=0x3:0x113 / me=umh / subme=11 / psy=1 / psy_rd=1.00:0.10 / mixed_ref=1 / me_range=48 / chroma_me=1 / trellis=2 / 8x8dct=1 / cqm=0 / deadzone=21,11 / fast_pskip=0 / chroma_qp_offset=-3 / threads=9 / lookahead_threads=2 / sliced_threads=0 / nr=0 / decimate=0 / interlaced=0 / bluray_compat=0 / constrained_intra=0 / bframes=13 / b_pyramid=2 / b_adapt=2 / b_bias=0 / direct=3 / weightb=1 / open_gop=0 / weightp=2 / keyint=240 / keyint_min=23 / scenecut=40 / intra_refresh=0 / rc_lookahead=60 / rc=2pass / mbtree=0 / bitrate=1254 / ratetol=1.0 / qcomp=0.70 / qpmin=0 / qpmax=69 / qpstep=4 / cplxblur=20.0 / qblur=0.5 / vbv_maxrate=14000 / vbv_bufsize=14000 / nal_hrd=none / filler=0 / ip_ratio=1.40 / pb_ratio=1.30 / aq=1:0.80
Language : English
Default : Yes
Forced : No

Audio
ID : 2
Format : AC-3
Format/Info : Audio Coding 3
Mode extension : CM (complete main)
Format settings, Endianness : Big
Codec ID : A_AC3
Duration : 2 h 2 min
Bit rate mode : Constant
Bit rate : 448 kb/s
Channel(s) : 6 channels
Channel positions : Front: L C R, Side: L R, LFE
Sampling rate : 48.0 kHz
Frame rate : 31.250 FPS (1536 spf)
Compression mode : Lossy
Stream size : 394 MiB (26%)
Title : Dub | DD 5.1 @ 448 kbps - Blu-ray CEE
Language : Russian
Default : Yes
Forced : No

Text #1
ID : 3
Format : UTF-8
Codec ID : S_TEXT/UTF8
Codec ID/Info : UTF-8 Plain Text
Title : Forced [potroks]
Language : Russian
Default : Yes
Forced : No

Text #2
ID : 4
Format : UTF-8
Codec ID : S_TEXT/UTF8
Codec ID/Info : UTF-8 Plain Text
Title : Forced [iTunes]
Language : Russian
Default : No
Forced : No

Text #3
ID : 5
Format : UTF-8
Codec ID : S_TEXT/UTF8
Codec ID/Info : UTF-8 Plain Text
Title : iTunes
Language : Russian
Default : No
Forced : No

Menu
00:00:00.000 : :Chapter 01
00:07:26.696 : :Chapter 02
00:14:41.630 : :Chapter 03
00:21:48.098 : :Chapter 04
00:29:36.566 : :Chapter 05
00:37:42.927 : :Chapter 06
00:43:44.538 : :Chapter 07
00:51:30.712 : :Chapter 08
00:59:35.446 : :Chapter 09
01:06:58.264 : :Chapter 10
01:13:07.508 : :Chapter 11
01:22:18.308 : :Chapter 12
01:30:34.720 : :Chapter 13
01:38:15.097 : :Chapter 14
01:46:46.942 : :Chapter 15
01:53:34.808 : :Chapter 16



Автор рипа: potroks


_________________
Проголосуй за трекер Открытый торрент трекер - RUS-MEDIA.ORG

Проголосуй Открытый торрент трекер - RUS-MEDIA.ORG


Вернуться к началу
 Профиль Отправить личное сообщение  
 
   Похожие торренты   Автор   Торрент   Размер 
В этой теме нет новых непрочитанных сообщений. Защитник / Concussion [драма, биография, спорт, 2015] BDRip 1080p, Dub

salma3

6 | 7

12.9 ГБ

В этой теме нет новых непрочитанных сообщений. Защитник / Concussion [драма, биография, спорт, 2015] BDRip 720p, Dub

salma3

3 | 13

6.6 ГБ

В этой теме нет новых непрочитанных сообщений. Защитник / Concussion (Питер Ландесман) [драма, спорт, 2015] BDRip 1080p, Mvo+Sub

Dracon

115 | 15

8.93 ГБ

В этой теме нет новых непрочитанных сообщений. Защитник / Concussion (Питер Ландесман) [драма, спорт, 2015] HDRip, Mvo

Dracon

384 | 52

1.37 ГБ

В этой теме нет новых непрочитанных сообщений. Допинг / The Program [Драма, биография, спорт, 2015] BDRip, Mvo [iTunes]

Dracon

1378 | 35

1.41 ГБ

В этой теме нет новых непрочитанных сообщений. Все мои американцы / My All American [Драма, биография, спорт, 2015] BDRip 1080p, Dvo

salma3

130 | 37

10.36 ГБ

В этой теме нет новых непрочитанных сообщений. Допинг / The Program [Драма, биография, спорт, 2015] BDRip 720p, Mvo [iTunes]

Dracon

663 | 12

4.94 ГБ


Начать новую тему Ответить на тему  [ 1 сообщение ] 




Для Мосгорсуда, Роскомнадзора и рекламодателей:: mosgorsud-torrent[собачка]yandex.ru
cron