Торрент файл
скачать торрент магнет ссылка Добавлен: 18 апр 2017, 12:02
Размер: 3.84 ГБ
Сидеров: 15
Личеров: 121
Статус: (salma3)
Автор

СообщениеДобавлено: 18 апр 2017, 12:02 

Не в сети
Супермодератор
Аватара пользователя
Дата регистрации:
15 фев 2012, 16:44
Возраст: 28
Спасибо: 7223 / 2147
Сообщения: 67839
Год выхода: 1986
Жанр: Боевик, Триллер, Драма
Режиссер: Сэм Ферстенберг

Актеры: Майкл Дудикофф, Стив Джеймс, Джеймс Бут, Уильям Уоллес, Джон П. Райан, Карл Джонсон, Марк Алаймо

Описание фильма:
Бывший секретный агент Мэтт Хантер приходит на помощь своему чернокожему другу Ларри, на которого готовят покушение террористы. Им удается убить всю семью Ларри и похитить младшую сестру Мэтта. В неравной схватке Мэтт все же побеждает своих врагов.



Производство: США
Продолжительность: 01:43:33
Перевод1: Профессиональный (многоголосый закадровый)
Перевод2:авторский (одноголосый закадровый) А.Михалёв
Субтитры: Русские

Качество видео: BDRip-AVC
Видео: AVC, 1024x556 (16:9), 23.976 fps, 4 626 Kbps (0.339 bit/pixel)
Аудио #1: AC-3, 48.0 KHz, 2 ch, 192 Kbps, CBR (Russian) - профессиональный (многоголосый закадровый)
Аудио #2: AC-3, 48.0 KHz, 2 ch, 192 Kbps, CBR (Russian) - авторский (одноголосый закадровый)
Аудио #3: AC-3, 48.0 KHz, 2 ch, 192 Kbps, CBR (English) - оригинал
Формат : Matroska
Версия формата : Version 2
Размер файла : 3,84 Гбайт
Продолжительность : 1 ч. 43 м.
Общий поток : 5308 Кбит/сек
Дата кодирования : UTC 2015-12-17 08:00:24
Программа кодирования : mkvmerge v5.3.0 ('I could have danced') built on Feb 9 2012 10:38:07
Библиотека кодирования : libebml v1.2.3 + libmatroska v1.3.0
Attachments : poster (2).jpg

Видео
Идентификатор : 1
Формат : AVC
Формат/Информация : Advanced Video Codec
Профиль формата : High@L4.1
Параметр CABAC формата : Да
Параметр ReFrames формата : 10 кадров
Идентификатор кодека : V_MPEG4/ISO/AVC
Продолжительность : 1 ч. 43 м.
Битрейт : 4626 Кбит/сек
Ширина : 1024 пикселя
Высота : 556 пикселей
Соотношение сторон : 1,85:1
Режим частоты кадров : Постоянный
Частота кадров : 23,976 (24000/1001) кадра/сек
Цветовое пространство : YUV
Субдискретизация насыщенности : 4:2:0
Битовая глубина : 8 бит
Тип развёртки : Прогрессивная
Бит/(Пиксели*Кадры) : 0.339
Размер потока : 3,35 Гбайт (87%)
Библиотека кодирования : x264 core 146 r2538 121396c
Настройки программы : cabac=1 / ref=10 / deblock=1:-3:-3 / analyse=0x3:0x133 / me=umh / subme=11 / psy=1 / psy_rd=1.00:0.00 / mixed_ref=1 / me_range=32 / chroma_me=1 / trellis=2 / 8x8dct=1 / cqm=0 / deadzone=21,11 / fast_pskip=0 / chroma_qp_offset=-2 / threads=12 / lookahead_threads=2 / sliced_threads=0 / nr=0 / decimate=0 / interlaced=0 / bluray_compat=0 / constrained_intra=0 / bframes=8 / b_pyramid=2 / b_adapt=2 / b_bias=0 / direct=3 / weightb=1 / open_gop=0 / weightp=2 / keyint=240 / keyint_min=23 / scenecut=40 / intra_refresh=0 / rc=crf / mbtree=0 / crf=19.0 / qcomp=0.60 / qpmin=0 / qpmax=69 / qpstep=4 / ip_ratio=1.40 / pb_ratio=1.30 / aq=2:0.90
Язык : English
Default : Да
Forced : Нет

Аудио #1
Идентификатор : 2
Формат : AC-3
Формат/Информация : Audio Coding 3
Расширение режима : CM (complete main)
Параметр Endianness формата : Big
Идентификатор кодека : A_AC3
Продолжительность : 1 ч. 43 м.
Вид битрейта : Постоянный
Битрейт : 192 Кбит/сек
Каналы : 2 канала
Расположение каналов : Front: L R
Частота : 48,0 КГц
Частота кадров : 31,250 кадров/сек (1536 spf)
Битовая глубина : 16 бит
Метод сжатия : С потерями
Размер потока : 142 Мбайт (4%)
Заголовок : Многоголосый с т/к Paramount Channel
Язык : Russian
Default : Да
Forced : Нет

Аудио #2
Идентификатор : 3
Формат : AC-3
Формат/Информация : Audio Coding 3
Расширение режима : CM (complete main)
Параметр Endianness формата : Big
Идентификатор кодека : A_AC3
Продолжительность : 1 ч. 43 м.
Вид битрейта : Постоянный
Битрейт : 192 Кбит/сек
Каналы : 2 канала
Расположение каналов : Front: L R
Частота : 48,0 КГц
Частота кадров : 31,250 кадров/сек (1536 spf)
Битовая глубина : 16 бит
Метод сжатия : С потерями
Размер потока : 142 Мбайт (4%)
Заголовок : Авторский А.Михалёв)
Язык : Russian
Default : Нет
Forced : Нет

Аудио #3
Идентификатор : 4
Формат : AC-3
Формат/Информация : Audio Coding 3
Расширение режима : CM (complete main)
Параметр Endianness формата : Big
Идентификатор кодека : A_AC3
Продолжительность : 1 ч. 43 м.
Вид битрейта : Постоянный
Битрейт : 192 Кбит/сек
Каналы : 2 канала
Расположение каналов : Front: L R
Частота : 48,0 КГц
Частота кадров : 31,250 кадров/сек (1536 spf)
Битовая глубина : 16 бит
Метод сжатия : С потерями
Размер потока : 142 Мбайт (4%)
Заголовок : оригинал
Язык : English
Default : Нет
Forced : Нет

Текст
Идентификатор : 5
Формат : UTF-8
Идентификатор кодека : S_TEXT/UTF8
Идентификатор кодека/Информация : UTF-8 Plain Text
Язык : Russian
Default : Нет
Forced : Нет

Релиз от: K.E.N


_________________
Проголосуй за трекер Открытый торрент трекер - RUS-MEDIA.ORG

Проголосуй Открытый торрент трекер - RUS-MEDIA.ORG


Вернуться к началу
 Профиль Отправить личное сообщение  
 
   Похожие торренты   Автор   Торрент   Размер 
В этой теме нет новых непрочитанных сообщений. Карающая сила / Avenging Force [боевик, триллер, драма, 1986] BDRip 720p, Mvo

salma3

0 | 0

7.93 ГБ

В этой теме нет новых непрочитанных сообщений. Карающая сила / Avenging Force [Боевик, драма, 1986] BDRip 1080p, Mvo

salma3

12 | 18

8.6 ГБ

В этой теме нет новых непрочитанных сообщений. Карающая сила / Avenging Force [Боевик, Триллер, Драма, 1986] HDRip, Mvo+Avo

salma3

74 | 7

1.46 ГБ

В этой теме нет новых непрочитанных сообщений. Карающая сила / Avenging Force [боевик, триллер, драма, 1986] BDRemux 1080p, Mvo

salma3

0 | 0

17.45 ГБ

В этой теме нет новых непрочитанных сообщений. Карающая сила / Avenging Force [Боевик, драма, 1986] BDRemux 1080p, Mvo

salma3

0 | 8

19.71 ГБ

В этой теме нет новых непрочитанных сообщений. Сила одиночки / A Force of One [боевик, триллер, драма, криминал, 1979] BDRip, Avo

salma3

30 | 2

1.46 ГБ

В этой теме нет новых непрочитанных сообщений. Сила одиночки / A Force Of One [Боевик, триллер, 1979] BDRip 1080p, Mvo+Avo

salma3

27 | 50

9.79 ГБ


Начать новую тему Ответить на тему  [ 1 сообщение ] 




Для Мосгорсуда, Роскомнадзора и рекламодателей:: mosgorsud-torrent[собачка]yandex.ru
cron