Торрент файл
скачать торрент магнет ссылка Добавлен: 18 апр 2017, 11:10
Размер: 1.37 ГБ
Сидеров: 67
Личеров: 15
Статус: (salma3)
Автор

СообщениеДобавлено: 18 апр 2017, 11:10 

В сети
Супермодератор
Аватара пользователя
Дата регистрации:
15 фев 2012, 16:44
Возраст: 29
Спасибо: 7377 / 2147
Сообщения: 75986
Год выхода: 1969
Жанр: комедия, криминал
Режиссер: Райнер Вернер Фассбиндер

В ролях: Улли Ломмел, Ханна Шигулла, Райнер Вернер Фасбиндер, Катрин Шаке, Урсула Штретц, Ханс Хиршмюллер, Пер Рабен, Петер Моланд, Курт Рааб, Питер Берлинг, Рудольф Вальдемар Брем

О фильме:
Герою фильма Бруно предлагают вступить в банду для ограбления банка. Параллельно он оказывается втянут в любовную интригу между Джоанной и сутенером Францем. Есть несколько путей выхода из создавшейся ситуации.



Страна: Германия (ФРГ)
Продолжительность: 01:28:39
Перевод: Профессиональный [многоголосый, закадровый] [SomeWax]

Файл
Кодек: XviD 73
Качество: BDRip
Видео: 720x432, 23.976 fps, ~2009 Кбит/с
Звук: 48 kHz/16-bit, AC3 1.0, ~192 kbps
Субтитры: Нет

General
Complete name : D:Любовь холоднее смерти.(1968).BDRIP.[-=DoMiNo=-].avi
Format : AVI
Format/Info : Audio Video Interleave
File size : 1.37 GiB
Duration : 1 h 28 min
Overall bit rate : 2 210 kb/s
Writing library : VirtualDub build 35491/release
Video
ID : 0
Format : MPEG-4 Visual
Format profile : Advanced Simple@L5
Format settings, BVOP : 1
Format settings, QPel : No
Format settings, GMC : No warppoints
Format settings, Matrix : Custom
Codec ID : XVID
Codec ID/Hint : XviD
Duration : 1 h 28 min
Bit rate : 2 009 kb/s
Width : 720 pixels
Height : 432 pixels
Display aspect ratio : 5:3
Frame rate : 23.976 (23976/1000) FPS
Color space : YUV
Chroma subsampling : 4:2:0
Bit depth : 8 bits
Scan type : Progressive
Compression mode : Lossy
Bits/(Pixel*Frame) : 0.269
Stream size : 1.24 GiB (91%)
Writing library : XviD 73
Audio
ID : 1
Format : AC-3
Format/Info : Audio Coding 3
Format settings, Endianness : Big
Codec ID : 2000
Duration : 1 h 28 min
Bit rate mode : Constant
Bit rate : 192 kb/s
Channel(s) : 1 channel
Channel positions : Front: C
Sampling rate : 48.0 kHz
Frame rate : 31.250 FPS (1536 spf)
Bit depth : 16 bits
Compression mode : Lossy
Stream size : 122 MiB (9%)
Alignment : Aligned on interleaves
Interleave, duration : 42 ms (1.00 video frame)
Interleave, preload duratio : 512 ms
Service kind : Complete Main


_________________
Проголосуй за трекер Открытый торрент трекер - RUS-MEDIA.ORG

Проголосуй Открытый торрент трекер - RUS-MEDIA.ORG


Вернуться к началу
 Профиль Отправить личное сообщение  
 
   Похожие торренты   Автор   Торрент   Размер 
В этой теме нет новых непрочитанных сообщений. Любовь холоднее смерти / Liebe ist kälter als der Tod [комедия, криминал, 1968] BDRip 720p, Mvo

salma3

28 | 20

6.36 ГБ

В этой теме нет новых непрочитанных сообщений. Любовь холоднее смерти / Liebe ist kälter als der Tod [комедия, криминал, 1968] BDRemux 1080p, Mvo+Sub

salma3

16 | 42

21.71 ГБ

В этой теме нет новых непрочитанных сообщений. Любовь за стеной / Liebe Mauer [драма, мелодрама, комедия, 2009] BDRip 720p, Mvo

salma3

28 | 14

4.16 ГБ

В этой теме нет новых непрочитанных сообщений. Любовь за стеной / Liebe Mauer [драма, мелодрама, комедия, 2009] HDRip, Mvo

salma3

20 | 8

1.46 ГБ

В этой теме нет новых непрочитанных сообщений. Жандарм женится / Le gendarme se marie [комедия, криминал, 1968] BDRip, Mvo [РенТВ]

salma3

68 | 20

1.45 ГБ

В этой теме нет новых непрочитанных сообщений. Девушка в цементе / Lady in Cement [драма, комедия, криминал, 1968] BDRip, Mvo

salma3

0 | 0

1.45 ГБ

В этой теме нет новых непрочитанных сообщений. Жажда смерти 5: Лик смерти / Death Wish V: The Face of Death [Боевик, Криминал, Триллер, 1994] BDRip-AVC, mvo

salma3

17 | 4

2.85 ГБ


Начать новую тему Ответить на тему  [ 1 сообщение ] 




Для Мосгорсуда, Роскомнадзора и рекламодателей:: mosgorsud-torrent[собачка]yandex.ru
cron