Торрент файл
скачать торрент магнет ссылка Добавлен: 14 апр 2017, 12:23
Размер: 697.73 МБ
Сидеров: 82
Личеров: 29
Статус: (salma3)
Автор

СообщениеДобавлено: 14 апр 2017, 12:23 

Не в сети
Супермодератор
Аватара пользователя
Дата регистрации:
15 фев 2012, 16:44
Возраст: 28
Спасибо: 7223 / 2147
Сообщения: 67839
Год выхода: 2016
Жанр: Фантастика, драма, мелодрама
Режиссер: Мари Мадинье

В ролях: Гийом Кане, Шарлотта Ле Бон, Ксавье Бовуа, Дэмиен Шапель, Патрик д’Асумсао, Анн Лё Ни, Жан Душе

О фильме: Скромная работница лаборатории Кристофи много лет безнадежно влюблена в выдающегося эгоистичного профессора Куинера, стоящего на пороге открытия абсолютного иммунитета. Но когда вся его работа оказывается под угрозой, у Кристофи появляется шанс проявить себя и она решается испытать экспериментальный препарат на себе. Поможет ли это ей сблизиться с Куинером? И не превратится ли она вдруг… в пингвина?



Страна: Францияn
Продолжительность: 01:17:51
Перевод: Профессиональный (многоголосый, закадровый) (лицензионный "Вольга") [Line]

Файл
Кодек: XviD
Качество: WEB-DLRip
Видео: 688x384 (1.79:1), 25 fps, XviD build 73 ~1054 kbps avg, 0.16 bit/pixel
Звук: 48 kHz, MPEG Layer 3, 2 ch, ~192.00 kbps avg

Семпл

Общее
Полное имя : Le.secret.des.banquises.2016.WEB-DLRip.ot.Portablius.avi
Формат : AVI
Формат/Информация : Audio Video Interleave
Размер файла : 698 Мбайт
Продолжительность : 1 ч. 17 м.
Общий поток : 1257 Кбит/сек
Программа кодирования : VirtualDubMod 1.5.10.3 | www.virtualdub-fr.org || (build 2550/release)
Библиотека кодирования : VirtualDubMod build 2550/release
Видео
Идентификатор : 0
Формат : MPEG-4 Visual
Профиль формата : Advanced Simple@L5
Параметр BVOP формата : 1
Параметр QPel формата : Нет
Параметр GMC формата : Без точки перехода
Параметр матрицы формата : Выборочная
Идентификатор кодека : XVID
Идентификатор кодека/Подсказка : XviD
Продолжительность : 1 ч. 17 м.
Битрейт : 1055 Кбит/сек
Ширина : 688 пикселей
Высота : 384 пикселя
Соотношение сторон : 16:9
Частота кадров : 25,000 кадров/сек
Цветовое пространство : YUV
Субдискретизация насыщенности : 4:2:0
Битовая глубина : 8 бит
Тип развёртки : Прогрессивная
Метод сжатия : С потерями
Бит/(Пиксели*Кадры) : 0.160
Размер потока : 586 Мбайт (84%)
Библиотека кодирования : XviD 73
Аудио
Идентификатор : 1
Формат : MPEG Audio
Версия формата : Version 1
Профиль формата : Layer 3
Идентификатор кодека : 55
Идентификатор кодека/Подсказка : MP3
Продолжительность : 1 ч. 17 м.
Вид битрейта : Постоянный
Битрейт : 192 Кбит/сек
Каналы : 2 канала
Частота : 48,0 КГц
Метод сжатия : С потерями
Размер потока : 107 Мбайт (15%)
Выравнивание : Соединение по промежуткам
Продолжительность промежутка : 40 мс. (1,00 видеокадр)
Время предзагрузки промежутка : 504 мс.
Библиотека кодирования : LAME3.99r
Настройки программы : -m s -V 4 -q 2 -lowpass 18.6 -b 192


_________________
Проголосуй за трекер Открытый торрент трекер - RUS-MEDIA.ORG

Проголосуй Открытый торрент трекер - RUS-MEDIA.ORG


Вернуться к началу
 Профиль Отправить личное сообщение  
 
   Похожие торренты   Автор   Торрент   Размер 
В этой теме нет новых непрочитанных сообщений. Любовь и пингвины / Le secret des banquises [Фантастика, драма, мелодрама, комедия, 2016] WEB-DLRip, Mvo

salma3

165 | 56

1.36 ГБ

В этой теме нет новых непрочитанных сообщений. Любовь и пингвины / Le secret des banquises [фантастика, драма, мелодрама, комедия, 2016] WEB-DLRip, Mvo [Line]

salma3

1124 | 125

1.37 ГБ

В этой теме нет новых непрочитанных сообщений. Фантастическая любовь и где ее найти / This Beautiful Fantastic [Фэнтези, драма, мелодрама, 2016] WEB-DLRip, Mvo [iTunes]

salma3

1891 | 824

1.37 ГБ

В этой теме нет новых непрочитанных сообщений. Судьба по имени любовь (1-4 серии из 4) [мелодрама, 2016] WEB-DLRip

salma3

1293 | 381

2.13 ГБ

В этой теме нет новых непрочитанных сообщений. Судьба по имени любовь [01-04 из 04] (Мелодрама, 2016) WEB-DLRip-AVC от Files-x

marya111

207 | 61

2.31 ГБ

В этой теме нет новых непрочитанных сообщений. Любовь без тормозов / Spin Out [мелодрама, комедия, 2016] WEB-DLRip, Mvo [iTunes]

salma3

1260 | 161

1.46 ГБ

В этой теме нет новых непрочитанных сообщений. Скрижали судьбы / The Secret Scripture [драма, 2016] WEB-DLRip, Dub

salma3

227 | 6

1.41 ГБ


Начать новую тему Ответить на тему  [ 1 сообщение ] 




Для Мосгорсуда, Роскомнадзора и рекламодателей:: mosgorsud-torrent[собачка]yandex.ru
cron