Торрент файл
скачать торрент магнет ссылка Добавлен: 10 апр 2017, 11:06
Размер: 1.62 ГБ
Сидеров: 52
Личеров: 14
Статус: (salma3)
Автор

СообщениеДобавлено: 10 апр 2017, 11:06 

Не в сети
Супермодератор
Аватара пользователя
Дата регистрации:
15 фев 2012, 16:44
Возраст: 28
Спасибо: 7163 / 2147
Сообщения: 61724
Год выхода: 1964
Жанр: драма, комедия
Режиссер: Кен Рассел

В ролях: Джеймс Бут, Рой Киннер, Мариза Мелл, Alita Naughton, Брайан Прингл, Роберт Робинсон, Жермэн Дельба. Норман Питт, Генри МакКарти, Шандор Элеш

О фильме:
Первый кинофильм Кена Расселла отвергают все, включая самого Кена, хотя этот фильм уже можно назвать классикой. Это - невинная британская картина о служащем, сдающем на прокат шезлонги, который устраивает для знаменитой французской кинозвезды открытие местного кинофестиваля. Но на самом деле сюжет служит лишь поводом для серии скетчей, в которых участвуют главные герои. И пройдя через все испытания, они понимают, что любовь сильнее, чем их амбиции. Сценарий был написан как легкая комедия, именно это и придает фильму очарование. Главные роли исполняют телевизионные актеры Джеймс Бут и Рой Киннеар. Также это кинодебют Алиты Нотон. Позже она снимется в телевизионном фильме Кена Расселла об Айседоре Дункан.



Страна: Великобритания
Продолжительность: 01:22:39.840
Перевод: Профессиональный (двухголосый закадровый) ГТРК "Культура"

Файл
Кодек: h.264
Качество: DVDRip-AVC
Видео: 712x432 (2.35:1) @ 1012x432, 25.000 fps, AVC, ~2449 Kbps, 0.318 bits/pixel
Звук:
Русский, 48.0 KHz, AC3, 2 ch, 160 Kbps
Английский, 48.0 KHz, AC3, 2 ch, 192 Kbps
Субтитры: нет

Общее
Уникальный идентификатор : 188483196319452425947462938788044547810 (0x8DCC8B0DE1553AA0985162DF28B126E2)
Полное имя : F:FILMSFrantsuzkoye_platye.1964.DVDRip-AVC.mkv
Формат : Matroska
Версия формата : Version 4 / Version 2
Размер файла : 1,62 Гбайт
Продолжительность : 1 ч. 22 м.
Общий поток : 2804 Кбит/сек
Дата кодирования : UTC 2017-04-08 06:55:25
Программа кодирования : mkvmerge v10.0.0 ('To Drown In You') 64bit
Библиотека кодирования : libebml v1.3.4 + libmatroska v1.4.5
Видео
Идентификатор : 1
Формат : AVC
Формат/Информация : Advanced Video Codec
Профиль формата : High@L4.1
Параметр CABAC формата : Да
Параметр ReFrames формата : 11 кадров
Идентификатор кодека : V_MPEG4/ISO/AVC
Продолжительность : 1 ч. 22 м.
Битрейт : 2449 Кбит/сек
Ширина : 712 пикселей
Высота : 432 пикселя
Соотношение сторон : 2,35:1
Соотношение сторон в оригинале : 2,35:1
Режим частоты кадров : Постоянный
Частота кадров : 25,000 кадров/сек
Цветовое пространство : YUV
Субдискретизация насыщенности : 4:2:0
Битовая глубина : 8 бит
Тип развёртки : Прогрессивная
Бит/(Пиксели*Кадры) : 0.318
Размер потока : 1,41 Гбайт (87%)
Библиотека кодирования : x264 core 148 r2638 7599210
Настройки программы : cabac=1 / ref=11 / deblock=1:0:0 / analyse=0x3:0x133 / me=umh / subme=11 / psy=1 / psy_rd=1.10:0.15 / mixed_ref=1 / me_range=48 / chroma_me=1 / trellis=2 / 8x8dct=1 / cqm=0 / deadzone=21,11 / fast_pskip=0 / chroma_qp_offset=-3 / threads=8 / lookahead_threads=2 / sliced_threads=0 / nr=0 / decimate=0 / interlaced=0 / bluray_compat=0 / constrained_intra=0 / bframes=10 / b_pyramid=2 / b_adapt=2 / b_bias=0 / direct=3 / weightb=1 / open_gop=0 / weightp=2 / keyint=250 / keyint_min=25 / scenecut=40 / intra_refresh=0 / rc_lookahead=60 / rc=2pass / mbtree=0 / bitrate=2449 / ratetol=1.0 / qcomp=0.60 / qpmin=0 / qpmax=69 / qpstep=4 / cplxblur=20.0 / qblur=0.5 / vbv_maxrate=40000 / vbv_bufsize=50000 / nal_hrd=none / filler=0 / ip_ratio=1.40 / pb_ratio=1.30 / aq=1:1.00
Default : Нет
Forced : Нет
Цветовой диапазон : Limited
Коэффициенты матрицы : BT.601
Аудио #1
Идентификатор : 2
Формат : AC-3
Формат/Информация : Audio Coding 3
Расширение режима : CM (complete main)
Параметр Endianness формата : Big
Идентификатор кодека : A_AC3
Продолжительность : 1 ч. 22 м.
Вид битрейта : Постоянный
Битрейт : 160 Кбит/сек
Каналы : 2 канала
Расположение каналов : Front: L R
Частота : 48,0 КГц
Частота кадров : 31,250 кадров/сек (1536 spf)
Битовая глубина : 16 бит
Метод сжатия : С потерями
Задержка видео : 24 мс.
Размер потока : 94,6 Мбайт (6%)
Язык : Russian
Default : Да
Forced : Нет
Аудио #2
Идентификатор : 3
Формат : AC-3
Формат/Информация : Audio Coding 3
Расширение режима : CM (complete main)
Параметр Endianness формата : Big
Идентификатор кодека : A_AC3
Продолжительность : 1 ч. 22 м.
Вид битрейта : Постоянный
Битрейт : 192 Кбит/сек
Каналы : 2 канала
Расположение каналов : Front: L R
Частота : 48,0 КГц
Частота кадров : 31,250 кадров/сек (1536 spf)
Битовая глубина : 16 бит
Метод сжатия : С потерями
Задержка видео : 24 мс.
Размер потока : 114 Мбайт (7%)
Язык : English
Default : Нет
Forced : Нет
Меню
00:00:00.000 : en:Chapter 01
00:08:39.600 : en:Chapter 02
00:15:12.400 : en:Chapter 03
00:23:14.400 : en:Chapter 04
00:30:04.000 : en:Chapter 05
00:34:19.800 : en:Chapter 06
00:43:51.000 : en:Chapter 07
00:48:26.400 : en:Chapter 08
00:52:57.400 : en:Chapter 09
00:58:26.000 : en:Chapter 10
01:04:49.800 : en:Chapter 11
01:13:31.800 : en:Chapter 12


Релиз от: Temperest


_________________
Проголосуй за трекер Открытый торрент трекер - RUS-MEDIA.ORG

Проголосуй Открытый торрент трекер - RUS-MEDIA.ORG


Вернуться к началу
 Профиль Отправить личное сообщение  
 
   Похожие торренты   Автор   Торрент   Размер 
В этой теме нет новых непрочитанных сообщений. Платье / De jurk [триллер, драма, комедия, 1996] DVDRip, Mvo

salma3

14 | 30

1.62 ГБ

В этой теме нет новых непрочитанных сообщений. Самое жуткое убийство / Murder Most Foul [триллер, драма, комедия, криминал, детектив, 1964] DVDRip, Avo

salma3

25 | 7

1.47 ГБ

В этой теме нет новых непрочитанных сообщений. Французский поцелуй / French Kiss [Драма, мелодрама, комедия, 1995] BDRip, Mvo

salma3

0 | 0

2.19 ГБ

В этой теме нет новых непрочитанных сообщений. Живет такой парень [Комедия, 1964] DVDRip-AVC

salma3

0 | 0

2.44 ГБ

В этой теме нет новых непрочитанных сообщений. Французский поцелуй / French Kiss [Драма, мелодрама, комедия, 1995] BDRip 1080p, Mvo

salma3

0 | 0

11.98 ГБ

В этой теме нет новых непрочитанных сообщений. Французский поцелуй / French Kiss [драма, мелодрама, комедия, 1995] BDRemux 1080p, Mvo

salma3

41 | 67

41.38 ГБ

В этой теме нет новых непрочитанных сообщений. Французский поцелуй / French Kiss [драма, мелодрама, комедия, 1995] BDRip 1080p, Mvo

salma3

0 | 0

13.58 ГБ


Начать новую тему Ответить на тему  [ 1 сообщение ] 




Для Мосгорсуда, Роскомнадзора и рекламодателей:: mosgorsud-torrent[собачка]yandex.ru
cron