Торрент файл
скачать торрент магнет ссылка Добавлен: 10 апр 2017, 10:55
Размер: 1.55 ГБ
Сидеров: 155
Личеров: 27
Статус: (salma3)
Автор

СообщениеДобавлено: 10 апр 2017, 10:55 

Не в сети
Супермодератор
Аватара пользователя
Дата регистрации:
15 фев 2012, 16:44
Возраст: 28
Спасибо: 7058 / 2147
Сообщения: 58792
Год выхода: 2000
Жанр: драма, комедия, криминал
Режиссер: Фатих Акин / Fatih Akin

В ролях: Мориц Бляйбтрой, Кристиана Пауль, Мехмет Куртулус, Идил Унер, Бранка Катич, Бироль Унел, Сандра Боргманн, Габор Салинджер, Сем Акин и др
.
О фильме:
Молодой преподаватель физики Даниэль не заметит своего счастья даже тогда, когда оно «даст ему прямо в лоб»! Но вскоре в его жизни, в которой, как правило, ничего не происходит, наступят перемены: кольцо с древним символом солнца ацтеков, приобретенное им на «блошином» рынке, должно принести удачу в любви. Так и случается: Даниэль по уши влюбляется в турецкую красавицу Мелек. Неожиданно для самого себя он решает ехать к ней в Стамбул и отправляется в автомобильное путешествие через всю Европу. По дороге его избивают, соблазняют, грабят, сажают в тюрьму, он теряет машину, деньги, вещи и документы. Но Даниэль упорно продвигается к желанной цели…



Страна: Германия
Продолжительность: 01:35:56.000
Перевод: Профессиональный (многоголосый, закадровый)

Файл
Кодек: h.264
Качество: DVDRip-AVC
Видео: 712x568 (16:9) @ 1010x568, 25.000 fps, AVC, ~1506 Kbps, 0.149 bits/pixel
Звук:
Русский, 48.0 KHz, AC3, 6 ch, 384 Kbps
Немецкий, 48.0 KHz, AC3, 6 ch, 384 Kbps
Субтитры: Русские, VobSub

Общее
Уникальный идентификатор : 196631338920897754889068065944574745358 (0x93EDD180415E325794164CF90E31DB0E)
Полное имя : D:FILMSSolntse_Attsekov.2000.DVDRip-AVC.mkv
Формат : Matroska
Версия формата : Version 4 / Version 2
Размер файла : 1,55 Гбайт
Продолжительность : 1 ч. 35 м.
Общий поток : 2320 Кбит/сек
Дата кодирования : UTC 2017-03-26 03:16:06
Программа кодирования : mkvmerge v10.0.0 ('To Drown In You') 64bit
Библиотека кодирования : libebml v1.3.4 + libmatroska v1.4.5
Видео
Идентификатор : 1
Формат : AVC
Формат/Информация : Advanced Video Codec
Профиль формата : High@L4.1
Параметр CABAC формата : Да
Параметр ReFrames формата : 11 кадров
Идентификатор кодека : V_MPEG4/ISO/AVC
Продолжительность : 1 ч. 35 м.
Битрейт : 1549 Кбит/сек
Ширина : 712 пикселей
Высота : 568 пикселей
Соотношение сторон : 16:9
Режим частоты кадров : Постоянный
Частота кадров : 25,000 кадров/сек
Цветовое пространство : YUV
Субдискретизация насыщенности : 4:2:0
Битовая глубина : 8 бит
Тип развёртки : Прогрессивная
Бит/(Пиксели*Кадры) : 0.153
Размер потока : 1,04 Гбайт (67%)
Библиотека кодирования : x264 core 148 r2638 7599210
Настройки программы : cabac=1 / ref=11 / deblock=1:0:0 / analyse=0x3:0x133 / me=umh / subme=11 / psy=1 / psy_rd=1.10:0.15 / mixed_ref=1 / me_range=48 / chroma_me=1 / trellis=2 / 8x8dct=1 / cqm=0 / deadzone=21,11 / fast_pskip=0 / chroma_qp_offset=-3 / threads=8 / lookahead_threads=2 / sliced_threads=0 / nr=0 / decimate=0 / interlaced=0 / bluray_compat=0 / constrained_intra=0 / bframes=10 / b_pyramid=2 / b_adapt=2 / b_bias=0 / direct=3 / weightb=1 / open_gop=0 / weightp=2 / keyint=250 / keyint_min=25 / scenecut=40 / intra_refresh=0 / rc_lookahead=60 / rc=crf / mbtree=0 / crf=19.0 / qcomp=0.60 / qpmin=0 / qpmax=69 / qpstep=4 / vbv_maxrate=40000 / vbv_bufsize=50000 / crf_max=0.0 / nal_hrd=none / filler=0 / ip_ratio=1.40 / pb_ratio=1.30 / aq=1:1.00
Default : Нет
Forced : Нет
Цветовой диапазон : Limited
Коэффициенты матрицы : BT.601
Аудио #1
Идентификатор : 2
Формат : AC-3
Формат/Информация : Audio Coding 3
Расширение режима : CM (complete main)
Параметр Endianness формата : Big
Идентификатор кодека : A_AC3
Продолжительность : 1 ч. 35 м.
Вид битрейта : Постоянный
Битрейт : 384 Кбит/сек
Каналы : 6 каналов
Расположение каналов : Front: L C R, Side: L R, LFE
Частота : 48,0 КГц
Частота кадров : 31,250 кадров/сек (1536 spf)
Битовая глубина : 16 бит
Метод сжатия : С потерями
Размер потока : 263 Мбайт (17%)
Язык : Russian
Default : Да
Forced : Нет
Аудио #2
Идентификатор : 3
Формат : AC-3
Формат/Информация : Audio Coding 3
Расширение режима : CM (complete main)
Параметр Endianness формата : Big
Идентификатор кодека : A_AC3
Продолжительность : 1 ч. 35 м.
Вид битрейта : Постоянный
Битрейт : 384 Кбит/сек
Каналы : 6 каналов
Расположение каналов : Front: L C R, Side: L R, LFE
Частота : 48,0 КГц
Частота кадров : 31,250 кадров/сек (1536 spf)
Битовая глубина : 16 бит
Метод сжатия : С потерями
Размер потока : 263 Мбайт (17%)
Язык : German
Default : Нет
Forced : Нет
Текст
Идентификатор : 4
Формат : VobSub
Режим смешивания : zlib
Идентификатор кодека : S_VOBSUB
Идентификатор кодека/Информация : Picture based subtitle format used on DVDs
Продолжительность : 1 ч. 30 м.
Битрейт : 1225 бит/сек
Count of elements : 752
Размер потока : 815 Кбайт (0%)
Язык : Russian
Default : Нет
Forced : Нет
Меню
00:00:00.000 : en:Chapter 01
00:01:51.360 : en:Chapter 02
00:08:44.160 : en:Chapter 03
00:14:21.120 : en:Chapter 04
00:21:35.520 : en:Chapter 05
00:29:19.680 : en:Chapter 06
00:35:17.440 : en:Chapter 07
00:43:26.560 : en:Chapter 08
00:53:13.960 : en:Chapter 09
00:59:56.320 : en:Chapter 10
01:04:09.680 : en:Chapter 11
01:09:22.240 : en:Chapter 12
01:13:43.000 : en:Chapter 13
01:16:01.840 : en:Chapter 14
01:21:33.520 : en:Chapter 15
01:23:12.400 : en:Chapter 16
01:27:25.360 : en:Chapter 17
01:31:10.000 : en:Chapter 18


Релиз от: Temperest


_________________
Проголосуй за трекер Открытый торрент трекер - RUS-MEDIA.ORG

Проголосуй Открытый торрент трекер - RUS-MEDIA.ORG


Вернуться к началу
 Профиль Отправить личное сообщение  
 
   Похожие торренты   Автор   Торрент   Размер 
В этой теме нет новых непрочитанных сообщений. Проклятие мумии Ацтеков / La Maldicion De La Momia Azteca [Приключения, комедия, 1957] DVDRip, Avo

salma3

1 | 1

745.33 МБ

В этой теме нет новых непрочитанных сообщений. Отступники / The Opportunists [Драма, криминал, комедия, 2000] DVDRip, Mvo

salma3

87 | 2

1.43 ГБ

В этой теме нет новых непрочитанных сообщений. Восходящее солнце / Rising Sun [Триллер, драма, криминал, 1993] BDRip-AVC, Mvo

salma3

23 | 2

1.45 ГБ

В этой теме нет новых непрочитанных сообщений. Восходящее солнце / Rising Sun [Триллер, драма, криминал, 1993] BDRip-AVC, Mvo

salma3

24 | 5

744.51 МБ

В этой теме нет новых непрочитанных сообщений. Восходящее солнце / Rising Sun [Триллер, драма, криминал, 1993] BDRemux 1080p, Mvo

salma3

6 | 13

29.13 ГБ

В этой теме нет новых непрочитанных сообщений. Восходящее солнце / Rising Sun [Триллер, драма, криминал, 1993] BDRip 720p, Mvo

salma3

17 | 5

6.04 ГБ

В этой теме нет новых непрочитанных сообщений. Восходящее солнце / Rising Sun [Боевик, триллер, драма, криминал, детектив, 1993] BDRip 1080p, Mvo

salma3

48 | 51

9.32 ГБ


Начать новую тему Ответить на тему  [ 1 сообщение ] 




Для Мосгорсуда, Роскомнадзора и рекламодателей:: mosgorsud-torrent[собачка]yandex.ru
cron