Торрент файл
скачать торрент магнет ссылка Добавлен: 07 апр 2017, 11:54
Размер: 1.81 ГБ
Сидеров: 1211
Личеров: 251
Статус: (salma3)
Автор

СообщениеДобавлено: 07 апр 2017, 11:54 

Не в сети
Супермодератор
Аватара пользователя
Дата регистрации:
15 фев 2012, 16:44
Возраст: 28
Спасибо: 6468 / 2129
Сообщения: 40699
Год выпуска: 2017
Жанр: Драма, мелодрама
Режиссёр: Филипп Лашо

В ролях: Филипп Лашо, Элоди Фонтан, Жюльен Аррути, Тарек Будали, Дидье Бурдон, Натали Бай, Науэлл Мадани, Меди Садун, Венсан Дезанья, Элис Дюфур

Описание: Нужно алиби, чтобы втайне от супруги спокойно отдохнуть с друзьями на футболе? Вам поможет агентство по созданию алиби. Нужна отмазка в школе? Обращайтесь! Решили отдохнуть от семьи в выходные? Мы на связи! Этот стартап Грега и его команды уже получил оглушительный успех…



Страна: США
Продолжительность: 01:25:41
Перевод: Дублированный [iTunes]

Качество: WEB-DLRip-AVC
Видео: 1024x554 (1.85:1), 23.976 fps, x264 ~2636 kbps avg, 0.186 bit/pixel
Аудио: 48 kHz, AC3 Dolby Digital, 3/2 (L,C,R,l,r) + LFE ch, ~384.00 kbps avg | RUS (iTunes)

Релиз от: Rip by:
Общее
Уникальный идентификатор : 228293133698030982021610727983097791355 (0xABBFA881AD238306BFA970ECC9E3437B)
Полное имя : D:Alibi.com.2017.WEB-DLRip(AVC).OlLanDGroup.mkv
Формат : Matroska
Версия формата : Version 2
Размер файла : 1,81 Гбайт
Продолжительность : 1 ч. 25 м.
Общий поток : 3022 Кбит/сек
Название фильма : Alibi.com.2017 #TorpedoUK#
Дата кодирования : UTC 2017-04-06 10:43:30
Программа кодирования : mkvmerge v7.8.0 ('River Man') 32bit built on Apr 3 2015 12:11:22
Библиотека кодирования : libebml v1.3.1 + libmatroska v1.4.2
Видео
Идентификатор : 1
Формат : AVC
Формат/Информация : Advanced Video Codec
Профиль формата : High@L4.1
Параметр CABAC формата : Да
Параметр ReFrames формата : 10 кадров
Идентификатор кодека : V_MPEG4/ISO/AVC
Продолжительность : 1 ч. 25 м.
Битрейт : 2636 Кбит/сек
Ширина : 1024 пикселя
Высота : 554 пикселя
Соотношение сторон : 1,85:1
Режим частоты кадров : Постоянный
Частота кадров : 25,000 кадров/сек
Цветовое пространство : YUV
Субдискретизация насыщенности : 4:2:0
Битовая глубина : 8 бит
Тип развёртки : Прогрессивная
Бит/(Пиксели*Кадры) : 0.186
Размер потока : 1,54 Гбайт (85%)
Библиотека кодирования : x264 core 146 r2538 121396c
Настройки программы : cabac=1 / ref=10 / deblock=1:-3:-3 / analyse=0x3:0x133 / me=umh / subme=10 / psy=1 / psy_rd=1.00:0.07 / mixed_ref=1 / me_range=48 / chroma_me=1 / trellis=2 / 8x8dct=1 / cqm=0 / deadzone=21,11 / fast_pskip=0 / chroma_qp_offset=-3 / threads=6 / lookahead_threads=1 / sliced_threads=0 / nr=0 / decimate=0 / interlaced=0 / bluray_compat=0 / constrained_intra=0 / bframes=10 / b_pyramid=2 / b_adapt=2 / b_bias=0 / direct=3 / weightb=1 / open_gop=0 / weightp=2 / keyint=250 / keyint_min=25 / scenecut=40 / intra_refresh=0 / rc_lookahead=40 / rc=2pass / mbtree=0 / bitrate=2636 / ratetol=1.0 / qcomp=0.60 / qpmin=0 / qpmax=69 / qpstep=4 / cplxblur=20.0 / qblur=0.5 / vbv_maxrate=50000 / vbv_bufsize=62500 / nal_hrd=none / filler=0 / ip_ratio=1.40 / pb_ratio=1.30 / aq=1:1.00
Язык : English
Default : Да
Forced : Нет
Цветовой диапазон : Limited
Основные цвета : BT.709
Характеристики трансфера : BT.709
Коэффициенты матрицы : BT.709
Аудио
Идентификатор : 2
Формат : AC-3
Формат/Информация : Audio Coding 3
Расширение режима : CM (complete main)
Параметр Endianness формата : Big
Идентификатор кодека : A_AC3
Продолжительность : 1 ч. 25 м.
Вид битрейта : Постоянный
Битрейт : 384 Кбит/сек
Каналы : 6 каналов
Расположение каналов : Front: L C R, Side: L R, LFE
Частота : 48,0 КГц
Частота кадров : 31,250 кадров/сек (1536 spf)
Битовая глубина : 16 бит
Метод сжатия : С потерями
Размер потока : 235 Мбайт (13%)
Заголовок : iTunes
Язык : Russian
Default : Да
Forced : Нет
Меню
00:00:00.000 : en:Глава 1
00:06:10.680 : en:Глава 2
00:11:29.320 : en:Глава 3
00:16:51.800 : en:Глава 4
00:23:38.760 : en:Глава 5
00:29:31.200 : en:Глава 6
00:35:36.280 : en:Глава 7
00:41:25.640 : en:Глава 8
00:47:41.000 : en:Глава 9
00:52:48.480 : en:Глава 10
00:59:43.080 : en:Глава 11
01:05:06.480 : en:Глава 12
01:10:18.640 : en:Глава 13
01:15:43.120 : en:Глава 14




_________________
Проголосуй за трекер Открытый торрент трекер - RUS-MEDIA.ORG

Проголосуй Открытый торрент трекер - RUS-MEDIA.ORG



реклама партнёра


Вернуться к началу
 Профиль Отправить личное сообщение  
 
   Похожие торренты   Автор   Торрент   Размер 
В этой теме нет новых непрочитанных сообщений. SuperАлиби / Alibi.com [комедия, 2017] WEB-DL 1080р, Dub [iTunes]

salma3

13967 | 2171

3.53 ГБ

В этой теме нет новых непрочитанных сообщений. SuperАлиби / Alibi.com [комедия, 2017] HDRip, Dub [iTunes]

salma3

2792 | 202

1.37 ГБ

В этой теме нет новых непрочитанных сообщений. SuperАлиби / Alibi.com [Комедия, 2017] BDRip 720р, Dub [iTunes]

salma3

659 | 103

4.46 ГБ

В этой теме нет новых непрочитанных сообщений. Орбита 9 / Órbita 9 [Фантастика, драма, мелодрама, 2017] WEB-DLRip-AVC, Dub [iTunes]

salma3

392 | 106

1.15 ГБ

В этой теме нет новых непрочитанных сообщений. Холодное танго [Мелодрама, военный, драма, история, 2017] WEB-DLRip, [iTunes]

salma3

5495 | 519

1.46 ГБ

В этой теме нет новых непрочитанных сообщений. Орбита 9 / Órbita 9 [фантастика, драма, мелодрама, 2017] WEB-DLRip 1080р, Dub [iTunes]

salma3

5851 | 686

3.16 ГБ

В этой теме нет новых непрочитанных сообщений. Париж подождет / Paris Can Wait [драма, мелодрама, комедия, 2017] WEB-DLRip-AVC, Dub [iTunes]

salma3

190 | 40

741.3 МБ


Начать новую тему Ответить на тему  [ 1 сообщение ] 




Для Мосгорсуда, Роскомнадзора и рекламодателей:: mosgorsud-torrent[собачка]yandex.ru