Торрент файл
скачать торрент магнет ссылка Добавлен: 04 апр 2017, 11:32
Размер: 2.75 ГБ
Сидеров: 109
Личеров: 42
Статус: (salma3)
Автор

СообщениеДобавлено: 04 апр 2017, 11:32 

Не в сети
Супермодератор
Аватара пользователя
Дата регистрации:
15 фев 2012, 16:44
Возраст: 30
Спасибо: 8109 / 2147
Сообщения: 93271
Год выхода: 2009
Жанр: ужасы, фантастика, боевик
Режиссер: Дон Э. ФонтЛеРой

В ролях: Кристал Аллен, Линден Эшби, Дэнни Мидуинтер, Кэлин Станцу, Ана Улару, Клаудиу, Блеонц, Анка Андроне, Эмиль Хостина, Александру Поточан, Джон Рис-Дэвис, ...

О фильме: С этой змеей связано множество невероятных мифов и суеверий. Но героям фильма предстоит убедиться в том, что змеи-мутанты продолжают размножаться, истребляя непрошенных «гостей», проникших в Царство Анаконды. Всполошенные рядом научных и корыстных экспедиций, гигантские рептилии начинают собственную охоту. Правда, это не останавливает желающих нажиться на сулящем большую прибыль трофее. Обычно новый сезон дождей выводит змею из оцепенения…



Страна: Румыния, США
Продолжительность: 01:24:55
Перевод: Профессиональный (двуголосый, закадровый) R5 «Columbia/Sony»

Кодек: x264
Качество: DVDRip-AVC
Видео: 1020x548, 3800 kbps, 25 fps
Аудио #1: AC-3, 6 ch, 448 kbps (Rus) - DVO R5 «Columbia/Sony»
Аудио #2: AC-3, 6 ch, 384 kbps (Eng)
Субтитры: русские, английские

За исходник спасибо - ROMA_BUKIN
x264 [info]: frame I:1079 Avg QP:14.15 size: 95130
x264 [info]: frame P:29179 Avg QP:16.71 size: 37882
x264 [info]: frame B:97118 Avg QP:18.42 size: 12466
x264 [info]: consecutive B-frames: 3.2% 4.5% 9.2% 15.6% 12.0% 48.1% 3.0% 3.2% 0.4% 0.2% 0.1% 0.2% 0.3%
Общее
Уникальный идентификатор : 238477239447400188577134658768507327365 (0xB3690BAFC2E78B0481648D83ECA95385)
Полное имя : Анаконда 4 Кровавый след (Anacondas 4 Trail of Blood) 2009 DVDRip.mkv
Формат : Matroska
Версия формата : Version 2
Размер файла : 2,75 Гбайт
Продолжительность : 1 ч. 24 м.
Общий поток : 4632 Кбит/сек
Дата кодирования : UTC 2017-03-29 20:57:50
Программа кодирования : mkvmerge v4.0.0 ('The Stars were mine') сборка от Jun 6 2010 16:18:42
Библиотека кодирования : libebml v1.0.0 + libmatroska v1.0.0
Видео
Идентификатор : 1
Формат : AVC
Формат/Информация : Advanced Video Codec
Профиль формата : High@L4.1
Параметр CABAC формата : Да
Параметр ReFrames формата : 12 кадров
Идентификатор кодека : V_MPEG4/ISO/AVC
Продолжительность : 1 ч. 24 м.
Битрейт : 3800 Кбит/сек
Ширина : 1020 пикселей
Высота : 548 пикселей
Соотношение сторон : 1,85:1
Режим частоты кадров : Постоянный
Частота кадров : 25,000 кадров/сек
Цветовое пространство : YUV
Субдискретизация насыщенности : 4:2:0
Битовая глубина : 8 бит
Тип развёртки : Прогрессивная
Бит/(Пиксели*Кадры) : 0.272
Размер потока : 2,20 Гбайт (80%)
Библиотека кодирования : x264 core 146 r2538 121396c
Настройки программы : cabac=1 / ref=12 / deblock=1:-3:-3 / analyse=0x3:0x133 / me=umh / subme=11 / psy=1 / psy_rd=1.00:0.00 / mixed_ref=1 / me_range=32 / chroma_me=1 / trellis=2 / 8x8dct=1 / cqm=0 / deadzone=21,11 / fast_pskip=0 / chroma_qp_offset=-2 / threads=12 / lookahead_threads=2 / sliced_threads=0 / nr=0 / decimate=0 / interlaced=0 / bluray_compat=0 / constrained_intra=0 / bframes=12 / b_pyramid=2 / b_adapt=2 / b_bias=0 / direct=3 / weightb=1 / open_gop=0 / weightp=2 / keyint=250 / keyint_min=25 / scenecut=40 / intra_refresh=0 / rc=2pass / mbtree=0 / bitrate=3800 / ratetol=1.0 / qcomp=0.60 / qpmin=0 / qpmax=69 / qpstep=4 / cplxblur=20.0 / qblur=0.5 / ip_ratio=1.40 / pb_ratio=1.30 / aq=1:0.80
Язык : English
Default : Нет
Forced : Нет
Аудио #1
Идентификатор : 2
Формат : AC-3
Формат/Информация : Audio Coding 3
Расширение режима : CM (complete main)
Параметр Endianness формата : Big
Идентификатор кодека : A_AC3
Продолжительность : 1 ч. 24 м.
Вид битрейта : Постоянный
Битрейт : 448 Кбит/сек
Каналы : 6 каналов
Расположение каналов : Front: L C R, Side: L R, LFE
Частота : 48,0 КГц
Частота кадров : 31,250 кадров/сек (1536 spf)
Метод сжатия : С потерями
Размер потока : 272 Мбайт (10%)
Заголовок : DVO R5 «Columbia/Sony»
Язык : Russian
Default : Нет
Forced : Нет
Аудио #2
Идентификатор : 3
Формат : AC-3
Формат/Информация : Audio Coding 3
Расширение режима : CM (complete main)
Параметр Endianness формата : Big
Идентификатор кодека : A_AC3
Продолжительность : 1 ч. 24 м.
Вид битрейта : Постоянный
Битрейт : 384 Кбит/сек
Каналы : 6 каналов
Расположение каналов : Front: L C R, Side: L R, LFE
Частота : 48,0 КГц
Частота кадров : 31,250 кадров/сек (1536 spf)
Метод сжатия : С потерями
Размер потока : 233 Мбайт (8%)
Язык : English
Default : Нет
Forced : Нет
Текст #1
Идентификатор : 4
Формат : UTF-8
Идентификатор кодека : S_TEXT/UTF8
Идентификатор кодека/Информация : UTF-8 Plain Text
Язык : Russian
Default : Нет
Forced : Нет
Текст #2
Идентификатор : 5
Формат : UTF-8
Идентификатор кодека : S_TEXT/UTF8
Идентификатор кодека/Информация : UTF-8 Plain Text
Язык : English
Default : Нет
Forced : Нет



_________________
Проголосуй за трекер Открытый торрент трекер - RUS-MEDIA.ORG

Проголосуй Открытый торрент трекер - RUS-MEDIA.ORG


Книжный торрент трекер



Вернуться к началу
 Профиль Отправить личное сообщение  
 
   Похожие торренты   Автор   Торрент   Размер 
В этой теме нет новых непрочитанных сообщений. Анаконда 2: Охота за проклятой орхидеей / Anacondas: The Hunt for the Blood Orchid [Ужасы, Боевик, Триллер, 2004] WEB-DLRip-AVC, Dub

salma3

95 | 15

2.91 ГБ

В этой теме нет новых непрочитанных сообщений. Анаконда 2: Охота за проклятой орхидеей / Anacondas: The Hunt for the Blood Orchid [ужасы, боевик, триллер, 2004] WEB-DL 1080p, Dub+Mvo+Dvo+Avo+Sub

salma3

174 | 4

4.73 ГБ

В этой теме нет новых непрочитанных сообщений. Анаконда 2: Охота за проклятой орхидеей / Anacondas: The Hunt for the Blood Orchid [Ужасы, боевик, триллер, 2004] HDTVRip-AVC, Dub

salma3

46 | 11

748.52 МБ

В этой теме нет новых непрочитанных сообщений. Пастырь / Shepherd [боевик, фантастика, 1998] DVDRip-AVC, Dvo

salma3

0 | 0

1.77 ГБ

В этой теме нет новых непрочитанных сообщений. Конфискатор / Repo Man [Боевик, комедия, фантастика, 1984] BDRip-AVC, Dvo

salma3

0 | 0

1.46 ГБ

В этой теме нет новых непрочитанных сообщений. Кровавый ручей / Blood Creek [ужасы, 2009] BDRemux 1080р, Avo

salma3

7 | 2

15.06 ГБ

В этой теме нет новых непрочитанных сообщений. Анаконда 3: Цена эксперимента / Anaconda: Offspring [ужасы, фантастика, боевик, 2008] DVDRip-AVC, Dvo

salma3

121 | 40

2.6 ГБ


Начать новую тему Ответить на тему  [ 1 сообщение ] 




Для Мосгорсуда, Роскомнадзора и рекламодателей:: mosgorsud-torrent[собачка]yandex.ru
cron