Торрент файл
скачать торрент магнет ссылка Добавлен: 02 апр 2017, 12:04
Размер: 2.18 ГБ
Сидеров: 0
Личеров: 0
Статус: (salma3)
Автор

СообщениеДобавлено: 02 апр 2017, 12:04 

Не в сети
Супермодератор
Аватара пользователя
Дата регистрации:
15 фев 2012, 16:44
Возраст: 28
Спасибо: 6928 / 2147
Сообщения: 52985
Год выхода: 1991
Жанр: комедия, драма
Режиссер: Янис Стрейч

В ролях: Ромуальд Анцанс, Мартинс Данчауск, Сигне Дундуре, Агнесе Латовска, Аквелина Ливмане, Янис Паукштелло, Андрейс Рудзинскис, Болеслав Руж, Ува Сеглина, Кристапс Стрейч

О фильме:
Мальчик, влюблённый в молодую женщину, которая в шутку называет его своим «маленьким женихом» и клянётся в вечной верности, воспринимает всё всерьёз. А у неё есть настоящий жених, за которого она выходит замуж. Из-за этого возникают удивительные, комические, драматические и даже трагические ситуации.
По одноименному роману Яниса Клидзейса.



Производство: Латвия / Film Studio TRIS, Rīgas kinostudija
Продолжительность: 01:33:53
Перевод: профессиональный (одноголосый закадровый)

Файл
Качество: DVDRip-AVC
Формат: MKV
Видео: MPEG-4 AVC, 690x570@736x570, 25.000 fps, 2878 kbps
Аудио #1: русский, AC3 2.0, 48 kHz, 192 kbps
Аудио #2: латышский, AC3 2.0, 48 kHz, 192 kbps
Субтитры: русские, английские, французские, латышские вшитые отключаемые (VobSub)

Формат : Matroska
Версия формата : Version 4 / Version 2
Размер файла : 2,18 Гбайт
Продолжительность : 1 ч. 33 м.
Общий поток : 3329 Кбит/сек
Дата кодирования : UTC 2017-03-31 15:09:37
Программа кодирования : mkvmerge v7.9.0 ('Birds') 64bit
Библиотека кодирования : libebml v1.3.1 + libmatroska v1.4.2
Видео
Идентификатор : 1
Формат : AVC
Формат/Информация : Advanced Video Codec
Профиль формата : Main@L4
Параметр CABAC формата : Да
Параметр ReFrames формата : 4 кадра
Идентификатор кодека : V_MPEG4/ISO/AVC
Битрейт : 2878 Кбит/сек
Ширина : 690 пикселей
Высота : 570 пикселей
Соотношение сторон : 1,291
Режим частоты кадров : Переменный
Цветовое пространство : YUV
Субдискретизация насыщенности : 4:2:0
Битовая глубина : 8 бит
Тип развёртки : Прогрессивная
Библиотека кодирования : x264 core 130 r2273 b3065e6
Настройки программы : cabac=1 / ref=1 / deblock=1:0:0 / analyse=0x1:0x111 / me=hex / subme=2 / psy=1 / psy_rd=1.00:0.00 / mixed_ref=0 / me_range=16 / chroma_me=1 / trellis=0 / 8x8dct=0 / cqm=0 / deadzone=21,11 / fast_pskip=1 / chroma_qp_offset=0 / threads=12 / lookahead_threads=4 / sliced_threads=0 / nr=0 / decimate=1 / interlaced=0 / bluray_compat=0 / constrained_intra=0 / bframes=3 / b_pyramid=2 / b_adapt=1 / b_bias=0 / direct=1 / weightb=1 / open_gop=0 / weightp=1 / keyint=250 / keyint_min=25 / scenecut=40 / intra_refresh=0 / rc_lookahead=10 / rc=crf / mbtree=1 / crf=20.0 / qcomp=0.60 / qpmin=0 / qpmax=69 / qpstep=4 / vbv_maxrate=20000 / vbv_bufsize=25000 / crf_max=0.0 / nal_hrd=none / ip_ratio=1.40 / aq=1:1.00
Default : Да
Forced : Нет
Цветовой диапазон : Limited
Основные цвета : BT.601 PAL
Характеристики трансфера : BT.709
Коэффициенты матрицы : BT.601
Аудио #1
Идентификатор : 2
Формат : AC-3
Формат/Информация : Audio Coding 3
Расширение режима : CM (complete main)
Параметр Endianness формата : Big
Идентификатор кодека : A_AC3
Продолжительность : 1 ч. 33 м.
Вид битрейта : Постоянный
Битрейт : 192 Кбит/сек
Каналы : 2 канала
Расположение каналов : Front: L R
Частота : 48,0 КГц
Метод сжатия : С потерями
Размер потока : 129 Мбайт (6%)
Язык : Russian
Default : Да
Forced : Нет
Аудио #2
Идентификатор : 3
Формат : AC-3
Формат/Информация : Audio Coding 3
Расширение режима : CM (complete main)
Параметр Endianness формата : Big
Идентификатор кодека : A_AC3
Продолжительность : 1 ч. 33 м.
Вид битрейта : Постоянный
Битрейт : 192 Кбит/сек
Каналы : 2 канала
Расположение каналов : Front: L R
Частота : 48,0 КГц
Метод сжатия : С потерями
Размер потока : 129 Мбайт (6%)
Язык : Latvian
Default : Нет
Forced : Нет
Текст #1
Идентификатор : 4
Формат : VobSub
Режим смешивания : zlib
Идентификатор кодека : S_VOBSUB
Идентификатор кодека/Информация : Picture based subtitle format used on DVDs
Язык : Russian
Default : Да
Forced : Нет
Текст #2
Идентификатор : 5
Формат : VobSub
Режим смешивания : zlib
Идентификатор кодека : S_VOBSUB
Идентификатор кодека/Информация : Picture based subtitle format used on DVDs
Язык : English
Default : Нет
Forced : Нет
Текст #3
Идентификатор : 6
Формат : VobSub
Режим смешивания : zlib
Идентификатор кодека : S_VOBSUB
Идентификатор кодека/Информация : Picture based subtitle format used on DVDs
Язык : French
Default : Нет
Forced : Нет
Текст #4
Идентификатор : 7
Формат : VobSub
Режим смешивания : zlib
Идентификатор кодека : S_VOBSUB
Идентификатор кодека/Информация : Picture based subtitle format used on DVDs
Язык : Latvian
Default : Нет
Forced : Нет
Меню
00:00:00.000 : en:Chapter 1
00:06:57.120 : en:Chapter 2
00:13:10.680 : en:Chapter 3
00:16:33.760 : en:Chapter 4
00:20:57.400 : en:Chapter 5
00:25:06.880 : en:Chapter 6
00:28:30.400 : en:Chapter 7
00:31:54.600 : en:Chapter 8
00:35:42.480 : en:Chapter 9
00:40:55.800 : en:Chapter 10
00:43:17.480 : en:Chapter 11
00:49:10.480 : en:Chapter 12
00:53:48.480 : en:Chapter 13
00:59:32.200 : en:Chapter 14
01:05:15.520 : en:Chapter 15
01:07:33.160 : en:Chapter 16
01:10:56.080 : en:Chapter 17
01:14:29.200 : en:Chapter 18
01:20:04.200 : en:Chapter 19
01:25:10.520 : en:Chapter 20
01:29:42.920 : en:Chapter 21
01:31:51.520 : en:Chapter 22


_________________
Проголосуй за трекер Открытый торрент трекер - RUS-MEDIA.ORG

Проголосуй Открытый торрент трекер - RUS-MEDIA.ORG



реклама партнёра


Вернуться к началу
 Профиль Отправить личное сообщение  
 
   Похожие торренты   Автор   Торрент   Размер 
В этой теме нет новых непрочитанных сообщений. Дитя человеческое / Children of Men [фантастика, триллер, драма, 2006] BDRip, Dub

salma3

77 | 58

2.19 ГБ

В этой теме нет новых непрочитанных сообщений. Дитя человеческое / Children Of Men [Фантастика, триллер, драма, 2006] BDRemux 1080p, Dub

salma3

81 | 23

26.78 ГБ

В этой теме нет новых непрочитанных сообщений. Проклятое дитя / Манхэттенское дитя / Manhattan Baby [ужасы, хоррор, 1982] BDRip 720p, Avo

salma3

15 | 7

3.01 ГБ

В этой теме нет новых непрочитанных сообщений. Страховой агент / The Adjuster [драма, комедия, 1991] DVDRip, Avo

salma3

67 | 8

794.41 МБ

В этой теме нет новых непрочитанных сообщений. Бродячий пёс: Бронеотряд Кербер / Jigoku no banken: kerubersu [фантастика, драма, комедия, 1991] DVDRip, Avo

salma3

55 | 9

1.46 ГБ

В этой теме нет новых непрочитанных сообщений. Дитя с Марса / Martian Child [комедия, семейный, 2007] HDTVRip 1080p, Mvo

salma3

77 | 0

6.71 ГБ

В этой теме нет новых непрочитанных сообщений. Дитя полуночи / Midnight's Child [Ужасы, триллер, 1992] DVDRip, Dvo

salma3

78 | 26

1.37 ГБ


Начать новую тему Ответить на тему  [ 1 сообщение ] 




Для Мосгорсуда, Роскомнадзора и рекламодателей:: mosgorsud-torrent[собачка]yandex.ru
cron