Торрент файл
скачать торрент магнет ссылка Добавлен: 29 мар 2017, 11:31
Размер: 2.95 ГБ
Сидеров: 5
Личеров: 1
Статус: (salma3)
Автор

СообщениеДобавлено: 29 мар 2017, 11:31 

Не в сети
Супермодератор
Аватара пользователя
Дата регистрации:
15 фев 2012, 16:44
Возраст: 28
Спасибо: 7285 / 2147
Сообщения: 70259
Год выпуска: 2015
Жанр: Комедия, мелодрама
Режиссер: Жан-Франсуа Рише

В ролях: Венсан Кассель, Франсуа Клюзе, Лола Ле Ланн, Алис Исааз, Лука Мельява, Ромейн Апельбаум, Филипп Наон, Аннелиз Эм, Вячеслав Гиндин

О фильме:
Два закадычных друга со своими дочерьми проводят отпуск на Ривьере, где на солнечных пляжах 42-летнему отцу семейства не устоять перед чарами соблазнительной 18-летней красотки и предстоит по уши влюбиться. Все бы ничего, да только прелестная девушка является дочерью лучшего друга — строгого отца, грозящего пристрелить любого, кто подойдет ближе, чем на шаг, к обожаемой малышке



Страна: Франция, Бельгия
Продолжительность: 01:45:29
Перевод: Дублированный | BD RUS
Качество: BDRip-AVC | исх. Un.moment.d'egarement.2015.BDRemux.1080p |
Формат: MKV
Видео: AVC, 1012x546, ~3480 kbps, 24 fps
Аудио: 48 kHz, AC3 Dolby Digital, 3/2 (L,C,R,l,r) + LFE ch, ~448 kbps

General
Unique ID : 141706171228052833817733495805496323113 (0x6A9B9DA82A74F812AB45DA1F339CEC29)
Complete name : F:FILMSЭтот неловкий момент.(2015).BDRIP-AVC.[-=DoMiNo=-].mkv
Format : Matroska
Format version : Version 4 / Version 2
File size : 2.95 GiB
Duration : 1 h 45 min
Overall bit rate : 4 007 kb/s
Movie name : Этот неловкий момент
Deion : Два закадычных друга со своими дочерьми проводят отпуск на Ривьере, где на солнечных пляжах в 42-летнего отца семейства влюбляется соблазнительная 18-летняя красотка. Все бы ничего, да только прелестная девушка является дочерью лучшего друга — строгого отца, грозящего пристрелить любого, кто подойдет ближе, чем на шаг, к обожаемой малышке.
Writing application : XviD4PSP 7.0.371 DAILY
Writing library : Lavf57.41.100 / Lavf57.41.100
Attachments : poster.jpg
ACTORS : Венсан Кассель, Франсуа Клюзе, Лола Ле Ланн, Алис Исааз, Лука Мельява, Noémie Merlant, Ромейн Апельбаум, Филипп Наон, François Bergoin, Аннелиз Эм, Samuel Torres Bianconi, Пьер-Мари Москони, Thomas Bronzini de Caraffa, Jacques Andreani, Дэниэл Делорм, Жуль Пелиссье, Патрик Себастьен
COMPOSER : Филипп Ромби
COUNTRY : Франция, Бельгия
DATE : 2015
DIRECTOR : Жан-Франсуа Рише
ENCODING_INFO : MATROSKA,WEBM > MKV Произвольный / H264 > X264 CRF 18.0 Произвольный / AC3 > COPY Безопасное
GENRE : мелодрама, комедия
HD_VIDEO : 1
IMDB_RATING : 6.30
ITUNEXTC : ru-movie|16+|375|
MEDIA_TYPE : 9
ORIGINAL_ACTORS : Vincent Cassel, François Cluzet, Lola Le Lann, Alice Isaaz, Louka Meliava, Romain Apelbaum, Philippe Nahon, Annelise Hesme, Pierre-Marie Mosconi, (в титрах: Thomas Bronzini), Daniel Delorme, Jules Pélissier, Patrick Sébastien
ORIGINAL_TITLE : Un moment d'égarement
PRODUCER : Себастьен Деллуа, Тома Лангманн, Дэниэл Делюм, Диана Элбаум, Филипп Логи, Эммануэль Монтамат
RATING : 6.256
WRITER : Лиза Азуэлос, Жан-Франсуа Рише, Клод Берри
Video
ID : 1
Format : AVC
Format/Info : Advanced Video Codec
Format profile : High@L4.1
Format settings, CABAC : Yes
Format settings, ReFrames : 12 frames
Codec ID : V_MPEG4/ISO/AVC
Duration : 1 h 45 min
Bit rate : 3 480 kb/s
Width : 1 012 pixels
Height : 546 pixels
Display aspect ratio : 1.85:1
Frame rate mode : Constant
Frame rate : 24.000 FPS
Color space : YUV
Chroma subsampling : 4:2:0
Bit depth : 8 bits
Scan type : Progressive
Bits/(Pixel*Frame) : 0.262
Stream size : 2.56 GiB (87%)
Title : RIP_BY_-=DoMiNo=-
Writing library : x264 core 148 r2762M 90a61ec
Encoding settings : cabac=1 / ref=12 / deblock=1:-3:-3 / analyse=0x3:0x133 / me=umh / subme=11 / psy=1 / psy_rd=1.10:0.10 / mixed_ref=1 / me_range=56 / chroma_me=1 / trellis=2 / 8x8dct=1 / cqm=0 / deadzone=21,11 / fast_pskip=0 / chroma_qp_offset=-3 / threads=8 / lookahead_threads=2 / sliced_threads=0 / nr=0 / decimate=1 / interlaced=0 / bluray_compat=0 / constrained_intra=0 / bframes=11 / b_pyramid=2 / b_adapt=2 / b_bias=0 / direct=3 / weightb=1 / open_gop=0 / weightp=2 / keyint=240 / keyint_min=24 / scenecut=40 / intra_refresh=0 / rc=crf / mbtree=0 / crf=18.0 / qcomp=0.65 / qpmin=0 / qpmax=69 / qpstep=4 / ip_ratio=1.40 / pb_ratio=1.30 / aq=1:1.00
Default : Yes
Forced : No
Color range : Limited
Color primaries : BT.709
Transfer characteristics : BT.709
Matrix coefficients : BT.709
DURATION : 01:45:28.750000000
Audio
ID : 2
Format : AC-3
Format/Info : Audio Coding 3
Format settings, Endianness : Big
Codec ID : A_AC3
Duration : 1 h 45 min
Bit rate mode : Constant
Bit rate : 448 kb/s
Channel(s) : 6 channels
Channel positions : Front: L C R, Side: L R, LFE
Sampling rate : 48.0 kHz
Frame rate : 31.250 FPS (1536 spf)
Bit depth : 16 bits
Compression mode : Lossy
Delay relative to video : 1 ms
Stream size : 338 MiB (11%)
Title : DUB_Лицензия Blu-ray RUS
Language : Russian
Service kind : Complete Main
Default : Yes
Forced : No
DURATION : 01:45:28.801000000
Menu
00:00:00.000 : :Chapter 1
00:10:28.500 : :Chapter 2
00:21:09.583 : :Chapter 3
00:32:47.541 : :Chapter 4
00:43:19.833 : :Chapter 5
00:50:58.791 : :Chapter 6
01:02:14.291 : :Chapter 7
01:12:41.208 : :Chapter 8
01:22:54.541 : :Chapter 9
01:30:28.041 : :Chapter 10
01:36:04.375 : :Chapter 11
01:40:56.083 : :Chapter 12




_________________
Проголосуй за трекер Открытый торрент трекер - RUS-MEDIA.ORG

Проголосуй Открытый торрент трекер - RUS-MEDIA.ORG


Вернуться к началу
 Профиль Отправить личное сообщение  
 
   Похожие торренты   Автор   Торрент   Размер 
В этой теме нет новых непрочитанных сообщений. Этот неловкий момент / Un moment d'égarement [комедия, 2015] BDRip, dub [Лицензия]

Dracon

223 | 47

1.46 ГБ

В этой теме нет новых непрочитанных сообщений. Этот неловкий момент / Un moment d'égarement (Жан-Франсуа Рише) [комедия, 2015] BDRip 720p, dub [НТВ+]

Dracon

518 | 21

5.54 ГБ

В этой теме нет новых непрочитанных сообщений. Этот неловкий момент / Un moment d'égarement (Жан-Франсуа Рише) [комедия, 2015] WEB-DL 1080p, dub [Чистый звук]

Dracon

10386 | 379

3.78 ГБ

В этой теме нет новых непрочитанных сообщений. Этот неловкий момент / Un moment d'garement (Жан-Франсуа Рише ) [2015, мелодрама, комедия, BDRip-AVC] Dub

Nickolas3435

404 | 23

1.46 ГБ

В этой теме нет новых непрочитанных сообщений. Миг за мигом / Moment by Moment [драма, мелодрама, 1978] HDTVRip, Mvo

salma3

50 | 1

1.08 ГБ

В этой теме нет новых непрочитанных сообщений. Мама-прилипала / The Meddler [драма, мелодрама, комедия, 2015] BDRip-AVC, Dub [Лицензия]

salma3

98 | 10

2.14 ГБ

В этой теме нет новых непрочитанных сообщений. Лондонские каникулы / A Royal Night Out [Драма, мелодрама, комедия, 2015] BDRip, Dub [Лицензия]

salma3

0 | 0

1.46 ГБ


Начать новую тему Ответить на тему  [ 1 сообщение ] 




Для Мосгорсуда, Роскомнадзора и рекламодателей:: mosgorsud-torrent[собачка]yandex.ru
cron