Торрент файл
скачать торрент магнет ссылка Добавлен: 27 мар 2017, 11:31
Размер: 1.14 ГБ
Сидеров: 0
Личеров: 0
Статус: (salma3)
Автор

СообщениеДобавлено: 27 мар 2017, 11:31 

Не в сети
Супермодератор
Аватара пользователя
Дата регистрации:
15 фев 2012, 16:44
Возраст: 28
Спасибо: 6487 / 2129
Сообщения: 41182
Год выхода: 2012
Жанр: Драма
Режиссер: Со Йонг Ким / So Yong Kim

В ролях: Пол Дано /Paul Dano/, Питер Робертс /Peter Roberts/, Уильям Робертс /William Roberts/, Джон Хидер /Jon Heder/, Маргарита Левиева /Margarita Levieva/, Джулиан Гэмбл /Julian Gamble/, Дакота Джонсон /Dakota Johnson/, Рональд Уолтер Мандиго /Ronald Walter Mandigo/, Мара Пелифиан /Mara Pelifian/, Шайлена Мандиго /Shaylena Mandigo/

О фильме:
Неудавшийся музыкант совершает долгую ночную поездку к своей жене, проживающей отдельно, чтобы добиться опеки над их маленькой дочерью.



Страна: США
Студия: Deerjen Films, RCR Media Group
Продолжительность: 01:29:45.320
Перевод: Профессиональный (двухголосый закадровый) Cтудия Tomitoot

Файл
Кодек: h.264
Качество: DVDRip-AVC
Видео: 712x432 (2.35:1) @ 1015x432, 25.000 fps, AVC, ~1171 Kbps, 0.152 bits/pixel
Звук:
Русский, 48.0 KHz, AC3, 2 ch, 160 Kbps
Английский, 48.0 KHz, AC3, 6 ch, 448 Kbps
Субтитры: нет
Общее
Уникальный идентификатор : 240562172713120813399282424930255200001 (0xB4FA96D54126838EA1390CBCD28F5F01)
Полное имя : D:FILMSRadi_Ellen.2012.DVDRip-AVC.mkv
Формат : Matroska
Версия формата : Version 4 / Version 2
Размер файла : 1,14 Гбайт
Продолжительность : 1 ч. 29 м.
Общий поток : 1815 Кбит/сек
Дата кодирования : UTC 2017-03-18 12:09:43
Программа кодирования : mkvmerge v9.9.0 ('Pick Up') 64bit
Библиотека кодирования : libebml v1.3.4 + libmatroska v1.4.5
Видео
Идентификатор : 1
Формат : AVC
Формат/Информация : Advanced Video Codec
Профиль формата : High@L4.1
Параметр CABAC формата : Да
Параметр ReFrames формата : 11 кадров
Идентификатор кодека : V_MPEG4/ISO/AVC
Продолжительность : 1 ч. 29 м.
Битрейт : 1205 Кбит/сек
Ширина : 712 пикселей
Высота : 432 пикселя
Соотношение сторон : 2,35:1
Соотношение сторон в оригинале : 2,35:1
Режим частоты кадров : Постоянный
Частота кадров : 25,000 кадров/сек
Цветовое пространство : YUV
Субдискретизация насыщенности : 4:2:0
Битовая глубина : 8 бит
Тип развёртки : Прогрессивная
Бит/(Пиксели*Кадры) : 0.157
Размер потока : 773 Мбайт (66%)
Библиотека кодирования : x264 core 148 r2638 7599210
Настройки программы : cabac=1 / ref=11 / deblock=1:0:0 / analyse=0x3:0x133 / me=umh / subme=11 / psy=1 / psy_rd=1.10:0.15 / mixed_ref=1 / me_range=48 / chroma_me=1 / trellis=2 / 8x8dct=1 / cqm=0 / deadzone=21,11 / fast_pskip=0 / chroma_qp_offset=-3 / threads=8 / lookahead_threads=2 / sliced_threads=0 / nr=0 / decimate=0 / interlaced=0 / bluray_compat=0 / constrained_intra=0 / bframes=10 / b_pyramid=2 / b_adapt=2 / b_bias=0 / direct=3 / weightb=1 / open_gop=0 / weightp=2 / keyint=250 / keyint_min=25 / scenecut=40 / intra_refresh=0 / rc_lookahead=60 / rc=crf / mbtree=0 / crf=19.0 / qcomp=0.60 / qpmin=0 / qpmax=69 / qpstep=4 / vbv_maxrate=40000 / vbv_bufsize=50000 / crf_max=0.0 / nal_hrd=none / filler=0 / ip_ratio=1.40 / pb_ratio=1.30 / aq=1:1.00
Default : Нет
Forced : Нет
Цветовой диапазон : Limited
Коэффициенты матрицы : BT.601
Аудио #1
Идентификатор : 2
Формат : AC-3
Формат/Информация : Audio Coding 3
Расширение режима : CM (complete main)
Параметр Endianness формата : Big
Идентификатор кодека : A_AC3
Продолжительность : 1 ч. 29 м.
Вид битрейта : Постоянный
Битрейт : 160 Кбит/сек
Каналы : 2 канала
Расположение каналов : Front: L R
Частота : 48,0 КГц
Частота кадров : 31,250 кадров/сек (1536 spf)
Битовая глубина : 16 бит
Метод сжатия : С потерями
Задержка видео : 220 мс.
Размер потока : 103 Мбайт (9%)
Язык : Russian
Default : Да
Forced : Нет
Аудио #2
Идентификатор : 3
Формат : AC-3
Формат/Информация : Audio Coding 3
Расширение режима : CM (complete main)
Параметр Endianness формата : Big
Идентификатор кодека : A_AC3
Продолжительность : 1 ч. 29 м.
Вид битрейта : Постоянный
Битрейт : 448 Кбит/сек
Каналы : 6 каналов
Расположение каналов : Front: L C R, Side: L R, LFE
Частота : 48,0 КГц
Частота кадров : 31,250 кадров/сек (1536 spf)
Битовая глубина : 16 бит
Метод сжатия : С потерями
Задержка видео : 220 мс.
Размер потока : 288 Мбайт (25%)
Язык : English
Default : Нет
Forced : Нет
Меню
00:00:00.000 : en:Chapter 01
00:09:51.840 : en:Chapter 02
00:17:59.520 : en:Chapter 03
00:27:35.520 : en:Chapter 04
00:36:56.160 : en:Chapter 05
00:44:16.800 : en:Chapter 06
00:53:45.120 : en:Chapter 07
01:03:55.200 : en:Chapter 08
01:17:01.440 : en:Chapter 09
01:26:20.160 : en:Chapter 10
01:29:44.920 : en:Chapter 11

Релиз от: Temperest


_________________
Проголосуй за трекер Открытый торрент трекер - RUS-MEDIA.ORG

Проголосуй Открытый торрент трекер - RUS-MEDIA.ORG



реклама партнёра


Вернуться к началу
 Профиль Отправить личное сообщение  
 
   Похожие торренты   Автор   Торрент   Размер 
В этой теме нет новых непрочитанных сообщений. Ravanna – Ради Звезд (EP)[2012, Post-Hardcore, Metalcore, MP3]

PriZraK

0 | 1

36.27 МБ

В этой теме нет новых непрочитанных сообщений. Ради единственной Лейлы / Oka Laila Kosam [мелодрама, комедия, 2014] DVDRip, Dvo+Sub

salma3

61 | 10

1.9 ГБ

В этой теме нет новых непрочитанных сообщений. Всё ради нее / Pour elle [триллер, драма, криминал, 2008] HDRip-AVC, Mvo

salma3

127 | 16

1.45 ГБ

В этой теме нет новых непрочитанных сообщений. Всё ради нее / Pour elle [триллер, драма, криминал, 2008] Blu-Ray Remux 1080р, Mvo

salma3

17 | 19

18.68 ГБ

В этой теме нет новых непрочитанных сообщений. Жить ради любви / Conviene far bene l'amore (Паскуале Феста Кампаниле / Pasquale Festa Campanile) [1975г., Италия, фантастика, комедия, DVDRip] AVO

Alfredovich

55 | 8

1.45 ГБ

В этой теме нет новых непрочитанных сообщений. CANDID8 - Ради Чего [2011, Punk-Rock, MP3]

PriZraK

0 | 1

87.86 МБ

В этой теме нет новых непрочитанных сообщений. Все ради любви / Anything for Love [мелодрама, комедия, 2016] HDTV 720p, Mvo

salma3

53 | 13

2.11 ГБ


Начать новую тему Ответить на тему  [ 1 сообщение ] 




Для Мосгорсуда, Роскомнадзора и рекламодателей:: mosgorsud-torrent[собачка]yandex.ru