Торрент файл
скачать торрент магнет ссылка Добавлен: 27 мар 2017, 11:29
Размер: 2.15 ГБ
Сидеров: 0
Личеров: 0
Статус: (salma3)
Автор

СообщениеДобавлено: 27 мар 2017, 11:29 

Не в сети
Супермодератор
Аватара пользователя
Дата регистрации:
15 фев 2012, 16:44
Возраст: 29
Спасибо: 7332 / 2147
Сообщения: 73912
Год выхода: 2011
Жанр: драма, биография, спорт
Режиссер: Жозе Энрике Фонсека

В ролях: Родригу Сантору, Присцила Асун, Отун Бастус, Эрсун Капри, Энджи Сепеда, Эрон Кордейру, Кандиду Дамм, Оран Фигейреду, Энрики Жулиану, Алина Мораис

О фильме:
Элено де Фрейтас — величайший бразильский футболист конца 1940-х, его называли белым Пеле, белым бриллиантом и принцем проклятым. В динамичном черно-белом фильме Жозе Энрике Фонсеки заносчивый, самовлюбленный, помешанный на женщинах Элено проходит путь от звезды мирового масштаба до инвалида — и обратно, благодаря многочисленным флэшбэкам.



Страна: Бразилия
Продолжительность: 01:57:43.098
Перевод: Профессиональный (многоголосый, закадровый)

Файл
Кодек: h.264
Качество: DVDRip-AVC Источник R1
Видео: 712x480 (16:9) @ 853x480, 23.976 fps, AVC, ~2229 Kbps, 0.272 bits/pixel
Звук1: Русский, 48.0 KHz, AC3, 2 ch, 160 Kbps (двойное моно)
Звук2: Португальский, 48.0 KHz, AC3, 2 ch, 224 Kbps
Субтитры: Португальские, VobSub / Английские, VobSub / Испанские, VobSub

Общее
Уникальный идентификатор : 215174499530121182310286187591592367659 (0xA1E119E7AD4CCE208FBA179249D4D62B)
Полное имя : E:FILMSEleno.2011.DVDRip-AVC.mkv
Формат : Matroska
Версия формата : Version 4 / Version 2
Размер файла : 2,15 Гбайт
Продолжительность : 1 ч. 57 м.
Общий поток : 2620 Кбит/сек
Дата кодирования : UTC 2017-03-20 04:15:28
Программа кодирования : mkvmerge v9.9.0 ('Pick Up') 64bit
Библиотека кодирования : libebml v1.3.4 + libmatroska v1.4.5
Видео
Идентификатор : 1
Формат : AVC
Формат/Информация : Advanced Video Codec
Профиль формата : High@L4.1
Параметр CABAC формата : Да
Параметр ReFrames формата : 11 кадров
Идентификатор кодека : V_MPEG4/ISO/AVC
Продолжительность : 1 ч. 57 м.
Битрейт : 2229 Кбит/сек
Ширина : 712 пикселей
Высота : 480 пикселей
Соотношение сторон : 16:9
Режим частоты кадров : Постоянный
Частота кадров : 23,976 (24000/1001) кадра/сек
Цветовое пространство : YUV
Субдискретизация насыщенности : 4:2:0
Битовая глубина : 8 бит
Тип развёртки : Прогрессивная
Бит/(Пиксели*Кадры) : 0.272
Размер потока : 1,83 Гбайт (85%)
Библиотека кодирования : x264 core 148 r2638 7599210
Настройки программы : cabac=1 / ref=11 / deblock=1:0:0 / analyse=0x3:0x133 / me=umh / subme=11 / psy=1 / psy_rd=1.10:0.15 / mixed_ref=1 / me_range=48 / chroma_me=1 / trellis=2 / 8x8dct=1 / cqm=0 / deadzone=21,11 / fast_pskip=0 / chroma_qp_offset=-3 / threads=8 / lookahead_threads=1 / sliced_threads=0 / nr=0 / decimate=0 / interlaced=0 / bluray_compat=0 / constrained_intra=0 / bframes=8 / b_pyramid=2 / b_adapt=2 / b_bias=0 / direct=3 / weightb=1 / open_gop=0 / weightp=2 / keyint=240 / keyint_min=23 / scenecut=40 / intra_refresh=0 / rc_lookahead=60 / rc=2pass / mbtree=0 / bitrate=2229 / ratetol=1.0 / qcomp=0.60 / qpmin=0 / qpmax=69 / qpstep=4 / cplxblur=20.0 / qblur=0.5 / vbv_maxrate=40000 / vbv_bufsize=50000 / nal_hrd=none / filler=0 / ip_ratio=1.40 / pb_ratio=1.30 / aq=1:1.00
Default : Нет
Forced : Нет
Цветовой диапазон : Limited
Коэффициенты матрицы : BT.601
Аудио #1
Идентификатор : 2
Формат : AC-3
Формат/Информация : Audio Coding 3
Расширение режима : CM (complete main)
Параметр Endianness формата : Big
Идентификатор кодека : A_AC3
Продолжительность : 1 ч. 57 м.
Вид битрейта : Постоянный
Битрейт : 160 Кбит/сек
Каналы : 2 канала
Расположение каналов : Front: L R
Частота : 48,0 КГц
Частота кадров : 31,250 кадров/сек (1536 spf)
Битовая глубина : 16 бит
Метод сжатия : С потерями
Размер потока : 135 Мбайт (6%)
Язык : Russian
Default : Да
Forced : Нет
Аудио #2
Идентификатор : 3
Формат : AC-3
Формат/Информация : Audio Coding 3
Расширение режима : CM (complete main)
Параметр Endianness формата : Big
Идентификатор кодека : A_AC3
Продолжительность : 1 ч. 57 м.
Вид битрейта : Постоянный
Битрейт : 224 Кбит/сек
Каналы : 2 канала
Расположение каналов : Front: L R
Частота : 48,0 КГц
Частота кадров : 31,250 кадров/сек (1536 spf)
Битовая глубина : 16 бит
Метод сжатия : С потерями
Размер потока : 189 Мбайт (9%)
Язык : Portuguese
Default : Нет
Forced : Нет
Текст #1
Идентификатор : 4
Формат : VobSub
Режим смешивания : zlib
Идентификатор кодека : S_VOBSUB
Идентификатор кодека/Информация : Picture based subtitle format used on DVDs
Продолжительность : 1 ч. 43 м.
Битрейт : 1916 бит/сек
Count of elements : 976
Размер потока : 1,42 Мбайт (0%)
Язык : Portuguese
Default : Нет
Forced : Нет
Текст #2
Идентификатор : 5
Формат : VobSub
Режим смешивания : zlib
Идентификатор кодека : S_VOBSUB
Идентификатор кодека/Информация : Picture based subtitle format used on DVDs
Продолжительность : 1 ч. 44 м.
Битрейт : 1814 бит/сек
Count of elements : 946
Размер потока : 1,36 Мбайт (0%)
Язык : English
Default : Нет
Forced : Нет
Текст #3
Идентификатор : 6
Формат : VobSub
Режим смешивания : zlib
Идентификатор кодека : S_VOBSUB
Идентификатор кодека/Информация : Picture based subtitle format used on DVDs
Продолжительность : 1 ч. 44 м.
Битрейт : 1938 бит/сек
Count of elements : 1031
Размер потока : 1,45 Мбайт (0%)
Язык : Spanish
Default : Нет
Forced : Нет
Меню
00:00:00.000 : en:Chapter 01
00:08:19.000 : en:Chapter 02
00:17:40.500 : en:Chapter 03
00:28:34.000 : en:Chapter 04
00:37:06.000 : en:Chapter 05
00:43:26.500 : en:Chapter 06
00:51:13.000 : en:Chapter 07
01:02:23.500 : en:Chapter 08
01:12:16.500 : en:Chapter 09
01:20:41.000 : en:Chapter 10
01:30:13.000 : en:Chapter 11
01:44:03.500 : en:Chapter 12
01:57:35.567 : en:Chapter 13

Релиз от: Temperest


_________________
Проголосуй за трекер Открытый торрент трекер - RUS-MEDIA.ORG

Проголосуй Открытый торрент трекер - RUS-MEDIA.ORG


Вернуться к началу
 Профиль Отправить личное сообщение  
 
   Похожие торренты   Автор   Торрент   Размер 
В этой теме нет новых непрочитанных сообщений. Кровавый спорт / Bloodsport [драма, спорт, биография, боевик, 1988] BDRemux 1080p, Mvo

salma3

10 | 2

17.28 ГБ

В этой теме нет новых непрочитанных сообщений. Величайший / The Greatest [драма, биография, спорт, 1977] DVDRip, Mvo

salma3

45 | 21

1.46 ГБ

В этой теме нет новых непрочитанных сообщений. Бык из Бронкса / The Bronx Bull [драма, биография, спорт, 2016] DVDRip, Mvo

salma3

357 | 167

1.37 ГБ

В этой теме нет новых непрочитанных сообщений. Человек, который изменил всё / Moneyball [драма, биография, спорт, 2011] BDRip, Dub

salma3

0 | 0

2.18 ГБ

В этой теме нет новых непрочитанных сообщений. Человек, который изменил всё / Moneyball [драма, биография, спорт, 2011] BDRip-AVC, Dub

salma3

0 | 0

1.45 ГБ

В этой теме нет новых непрочитанных сообщений. Человек, который изменил всё / Moneyball [драма, биография, спорт, 2011] BDRip 720p, Dub

salma3

0 | 2

4.34 ГБ

В этой теме нет новых непрочитанных сообщений. Человек, который изменил всё / Moneyball [драма, биография, спорт, 2011] BDRip 1080p, 2Dub

salma3

3 | 1

11.54 ГБ


Начать новую тему Ответить на тему  [ 1 сообщение ] 




Для Мосгорсуда, Роскомнадзора и рекламодателей:: mosgorsud-torrent[собачка]yandex.ru
cron