Торрент файл
скачать торрент магнет ссылка Добавлен: 24 мар 2017, 21:34
Размер: 1.46 ГБ
Сидеров: 91
Личеров: 28
Статус: (salma3)
Автор

СообщениеДобавлено: 24 мар 2017, 21:34 

Не в сети
Супермодератор
Аватара пользователя
Дата регистрации:
15 фев 2012, 16:44
Возраст: 28
Спасибо: 6642 / 2146
Сообщения: 45738
Год выхода: 1970
Жанр: драма, военный, биография, история
Режиссер: Кен Хьюз

В ролях: Ричард Харрис, Алек Гиннесс, Роберт Морли, Дороти Тьютин, Фрэнк Финлей, Тимоти Далтон, Патрик Уаймарк, Патрик Мэги, Найджел Сток, Чарльз Грей

О фильме:
Достоверное историческое повествование о гражданской войне XVII века, разделившей Англию на два противоборствующих лагеря, об английской буржуазной революции. Основное внимание в картине уделяется конфронтации Оливера Кромвеля и короля Карла I. Кромвель — идеалист, преданный своему делу, с холодными, измученными глазами, хриплым голосом и несгибаемым духом. Он настроен любой ценой спасти свою любимую Англию от коррупции слабого, жадного двора и установить власть парламента, который был бы по-настоящему демократическим, выражал интересы народа, не являлся бы игрушкой короля…



Страна: Великобритания
Продолжительность: 02:19:38
Перевод: Профессиональный (двухголосый закадровый) [НТВ+]

Файл
Качество: BDRip
Видео: XviD 73, ~1294 Кбит/с, 688x288, 23.976 кадр/с
Звук: AC3, 2 ch, 192 Кбит/с

General
Complete name : F:Кромвель.(1970).BDRip.[-=DoMiNo=-].avi
Format : AVI
Format/Info : Audio Video Interleave
File size : 1.46 GiB
Duration : 2 h 19 min
Overall bit rate : 1 495 kb/s
Writing library : VirtualDub build 35491/release

Video
ID : 0
Format : MPEG-4 Visual
Format profile : Advanced Simple@L5
Format settings, BVOP : 1
Format settings, QPel : No
Format settings, GMC : No warppoints
Format settings, Matrix : Custom
Codec ID : XVID
Codec ID/Hint : XviD
Duration : 2 h 19 min
Bit rate : 1 294 kb/s
Width : 688 pixels
Height : 288 pixels
Display aspect ratio : 2.40:1
Frame rate : 23.976 (23976/1000) FPS
Color space : YUV
Chroma subsampling : 4:2:0
Bit depth : 8 bits
Scan type : Progressive
Compression mode : Lossy
Bits/(Pixel*Frame) : 0.272
Stream size : 1.26 GiB (87%)
Writing library : XviD 73

Audio
ID : 1
Format : AC-3
Format/Info : Audio Coding 3
Format settings, Endianness : Big
Codec ID : 2000
Duration : 2 h 19 min
Bit rate mode : Constant
Bit rate : 192 kb/s
Channel(s) : 2 channels
Channel positions : Front: L R
Sampling rate : 48.0 kHz
Frame rate : 31.250 FPS (1536 spf)
Bit depth : 16 bits
Compression mode : Lossy
Stream size : 192 MiB (13%)
Alignment : Aligned on interleaves
Interleave, duration : 42 ms (1.00 video frame)
Interleave, preload duratio : 512 ms
Service kind : Complete Main


_________________
Проголосуй за трекер Открытый торрент трекер - RUS-MEDIA.ORG

Проголосуй Открытый торрент трекер - RUS-MEDIA.ORG



реклама партнёра


Вернуться к началу
 Профиль Отправить личное сообщение  
 
   Похожие торренты   Автор   Торрент   Размер 
В этой теме нет новых непрочитанных сообщений. Кромвель / Cromwell [драма, военный, биография, история, 1970] BDRip 720p, Dvo [НТВ+]

salma3

97 | 12

3.72 ГБ

В этой теме нет новых непрочитанных сообщений. Кромвель / Cromwell [драма, военный, биография, история, 1970] BDRip 1080p, Dvo

salma3

38 | 12

8.61 ГБ

В этой теме нет новых непрочитанных сообщений. Кромвель / Cromwell [драма, военный, биография, история, 1970] HDRip, Dvo [НТВ+]

salma3

126 | 15

2.18 ГБ

В этой теме нет новых непрочитанных сообщений. Маленький большой человек / Little Big Man [драма, приключения, вестерн, военный, история, 1970] BDRip 1080p, Mvo+Avo+Sub

salma3

17 | 1

7.01 ГБ

В этой теме нет новых непрочитанных сообщений. Макбет / The Tragedy of Macbeth [драма, военный, биография, история, 1971] BDRip, Mvo

salma3

21 | 1

1.45 ГБ

В этой теме нет новых непрочитанных сообщений. Освободитель / Libertador [драма, история, военный, биография, 2013] BDRip 720p, Dvo

salma3

143 | 43

6.4 ГБ

В этой теме нет новых непрочитанных сообщений. Кундун / Kundun [Драма, военный, биография, история, 1997] BDRip 1080p, Mvo+Avo+Sub

salma3

7 | 3

11.17 ГБ


Начать новую тему Ответить на тему  [ 1 сообщение ] 




Для Мосгорсуда, Роскомнадзора и рекламодателей:: mosgorsud-torrent[собачка]yandex.ru