Торрент файл
скачать торрент магнет ссылка Добавлен: 19 мар 2017, 15:23
Размер: 1.47 ГБ
Сидеров: 69
Личеров: 29
Статус: (salma3)
Автор

СообщениеДобавлено: 19 мар 2017, 15:23 

Не в сети
Супермодератор
Аватара пользователя
Дата регистрации:
15 фев 2012, 16:44
Возраст: 28
Спасибо: 6468 / 2129
Сообщения: 40878
Год выпуска: 2004
Жанр: мультфильм, фэнтези, семейный
Режиссер: Питер Хьюит

В ролях: Брекин Мейер, Дженнифер Лав Хьюитт, Стивен Тоболовски, Билл Мюррэй, Ивэн Арнольд, Марк Кристофер Лоуренс, Ванесса Кристелль, Даамен Дж. Кралл, Руфус Гиффорд, Рэнди Рейхер

Описание:
Он циничен, ленив и вообще, он - жирный котяра. Сейчас Гарфилд - любимая кошка всей Америки, которая вскоре станет главной кинозвездой в фильме, рассчитанном на широкую аудиторию. Фильм сделан на основе газетных рисунков-комиксов. Хозяин Гарфилда, Джон, приносит в дом милого щенка Оди, и с этого момента жизнь Гарфилда идёт наперекосяк. Он хочет только одного - чтобы пес исчез из его жизни и из его дома навсегда! Но когда внезапно щенка похищают, Гарфилд, возможно впервые в жизни, чувствует лежащую на нём ответственность. И он начинает действовать…



Страна: США
Продолжительность: 01:20:12
Перевод: Профессиональный (полное дублирование)
Субтитры: Русские, английские

Формат: BDRip-AVC
Видео: 944x512 (1.85:1), 23.976 fps, AVC MPEG-4 (H.264), ~1855 kbps, 0.160 bit/pixel
Аудио#1: Русский: 48 kHz, AC3 Dolby Digital, 3/2 (L,C,R,l,r) + LFE ch, ~384 kbps
Аудио#2: Английский: 48 kHz, AC3 Dolby Digital, 3/2 (L,C,R,l,r) + LFE ch, ~384 kbps

Format : Matroska
Format version : Version 4 / Version 2
File size : 1.47 GiB
Duration : 1h 20mn
Overall bit rate : 2 625 Kbps
Encoded date : UTC 2014-08-18 15:27:06
Writing application : mkvmerge v6.7.0 ('Back to the Ground') 32bit built on Jan 8 2014 15:03:17
Writing library : libebml v1.3.0 + libmatroska v1.4.1

Video
ID : 1
Format : AVC
Format/Info : Advanced Video Codec
Format profile :
Format settings, CABAC : Yes
Format settings, ReFrames : 12 frames
Codec ID : V_MPEG4/ISO/AVC
Duration : 1h 20mn
Bit rate : 1 855 Kbps
Width : 944 pixels
Height : 512 pixels
Display aspect ratio : 1.85:1
Frame rate mode : Constant
Frame rate : 23.976 fps
Color space : YUV
Chroma subsampling : 4:2:0
Bit depth : 8 bits
Scan type : Progressive
Bits/(Pixel*Frame) : 0.160
Stream size : 1.01 GiB (69%)
Writing library : x264 core 142 r2453kMod ea0ca51
Encoding settings : cabac=1 / ref=12 / deblock=1:-2:-1 / analyse=0x3:0x133 / me=umh / subme=11 / psy=1 / fade_compensate=0.00 / psy_rd=1.00:0.05 / mixed_ref=1 / me_range=32 / chroma_me=1 / trellis=2 / 8x8dct=1 / cqm=0 / deadzone=21,11 / fast_pskip=0 / chroma_qp_offset=-3 / threads=12 / lookahead_threads=3 / sliced_threads=0 / nr=0 / decimate=1 / interlaced=0 / bluray_compat=0 / constrained_intra=0 / fgo=0 / bframes=12 / b_pyramid=2 / b_adapt=2 / b_bias=0 / direct=3 / weightb=1 / open_gop=0 / weightp=2 / keyint=250 / keyint_min=23 / scenecut=40 / intra_refresh=0 / rc_lookahead=60 / rc=2pass / mbtree=1 / bitrate=1855 / ratetol=1.0 / qcomp=0.60 / qpmin=0 / qpmax=69 / qpstep=4 / cplxblur=20.0 / qblur=0.5 / ip_ratio=1.40 / aq=1:1.00
Language : English
Default : Yes
Forced : No

Audio #1
ID : 2
Format : AC-3
Format/Info : Audio Coding 3
Mode extension : CM (complete main)
Format settings, Endianness : Big
Codec ID : A_AC3
Duration : 1h 20mn
Bit rate mode : Constant
Bit rate : 384 Kbps
Channel(s) : 6 channels
Channel positions : Front: L C R, Side: L R, LFE
Sampling rate : 48.0 KHz
Bit depth : 16 bits
Compression mode : Lossy
Stream size : 220 MiB (15%)
Title : DUB
Language : Russian
Default : Yes
Forced : No

Audio #2
ID : 3
Format : AC-3
Format/Info : Audio Coding 3
Mode extension : CM (complete main)
Format settings, Endianness : Big
Codec ID : A_AC3
Duration : 1h 20mn
Bit rate mode : Constant
Bit rate : 384 Kbps
Channel(s) : 6 channels
Channel positions : Front: L C R, Side: L R, LFE
Sampling rate : 48.0 KHz
Bit depth : 16 bits
Compression mode : Lossy
Stream size : 220 MiB (15%)
Title : Original
Language : English
Default : No
Forced : No

Text #1
ID : 4
Format : UTF-8
Codec ID : S_TEXT/UTF8
Codec ID/Info : UTF-8 Plain Text
Language : Russian
Default : No
Forced : No

Text #2
ID : 5
Format : UTF-8
Codec ID : S_TEXT/UTF8
Codec ID/Info : UTF-8 Plain Text
Language : English
Default : No
Forced : No

Menu
00:00:00.000 : en:00:00:00.000
00:01:50.735 : en:00:01:50.735
00:03:59.197 : en:00:03:59.197
00:06:37.855 : en:00:06:37.855
00:08:32.970 : en:00:08:32.970
00:10:27.418 : en:00:10:27.418
00:12:19.447 : en:00:12:19.447
00:14:53.726 : en:00:14:53.726
00:18:55.801 : en:00:18:55.801
00:20:52.334 : en:00:20:52.334
00:23:36.540 : en:00:23:36.540
00:25:02.459 : en:00:25:02.459
00:28:07.018 : en:00:28:07.018
00:30:05.637 : en:00:30:05.637
00:31:35.476 : en:00:31:35.476
00:33:26.170 : en:00:33:26.170
00:42:21.330 : en:00:42:21.330
00:45:54.168 : en:00:45:54.168
00:50:17.139 : en:00:50:17.139
00:52:41.283 : en:00:52:41.283
00:57:31.114 : en:00:57:31.114
01:00:40.428 : en:01:00:40.428
01:02:11.853 : en:01:02:11.853
01:05:43.397 : en:01:05:43.397
01:06:18.933 : en:01:06:18.933
01:07:51.233 : en:01:07:51.233
01:11:17.982 : en:01:11:17.982
01:13:24.191 : en:01:13:24.191





_________________
Проголосуй за трекер Открытый торрент трекер - RUS-MEDIA.ORG

Проголосуй Открытый торрент трекер - RUS-MEDIA.ORG



реклама партнёра


Вернуться к началу
 Профиль Отправить личное сообщение  
 
   Похожие торренты   Автор   Торрент   Размер 
В этой теме нет новых непрочитанных сообщений. Аисты / Storks [Мультфильм, фэнтези, комедия, семейный, 2016] BDRip, Dub [iTunes]

salma3

19774 | 2742

1.42 ГБ

В этой теме нет новых непрочитанных сообщений. Снеговик / The Snowman [мультфильм, короткометражка, фэнтези, приключения, семейный, 1982] BDRip-AVC

salma3

16 | 2

1.45 ГБ

В этой теме нет новых непрочитанных сообщений. Аисты / Storks [Мультфильм, фэнтези, комедия, семейный, 2016] BDRip-AVC, Dub [Лицензия ]

salma3

344 | 47

1.46 ГБ

В этой теме нет новых непрочитанных сообщений. Аисты / Storks [мультфильм, фэнтези, комедия, приключения, семейный, 2016] BDRip-AVC, Dub [Лицензия]

salma3

376 | 111

2.18 ГБ

В этой теме нет новых непрочитанных сообщений. Аисты / Storks (мультфильм, фэнтези, комедия, семейный, 2016) BDRip HEVC 1080p | D | iTunes

marya111

226 | 68

5.08 ГБ

В этой теме нет новых непрочитанных сообщений. Монстры на каникулах 2 / Hotel Transylvania 2 [мультфильм, фэнтези, комедия, семейный, 2015] BDRip-AVC, Dub+Sub [Лицензия]

Dracon

380 | 49

1.46 ГБ

В этой теме нет новых непрочитанных сообщений. Аисты / Storks [мультфильм, фэнтези, комедия, приключения, семейный, 2016] BDRip 1080p, Dub [Лицензия]

salma3

59 | 14

8.86 ГБ


Начать новую тему Ответить на тему  [ 1 сообщение ] 




Для Мосгорсуда, Роскомнадзора и рекламодателей:: mosgorsud-torrent[собачка]yandex.ru