Торрент файл
скачать торрент магнет ссылка Добавлен: 18 мар 2017, 12:56
Размер: 2.35 ГБ
Сидеров: 137
Личеров: 40
Статус: (salma3)
Автор

СообщениеДобавлено: 18 мар 2017, 12:56 

Не в сети
Супермодератор
Аватара пользователя
Дата регистрации:
15 фев 2012, 16:44
Возраст: 28
Спасибо: 6644 / 2146
Сообщения: 45843
Год выхода: 2012
Жанр: Ужасы, триллер
Режиссер: Сонни Лагуна, Томмю Виклунд

В ролях: Патрик Алмквист, Лиза Хенни, Патрик Сакс, Йоханнес Брост, Аманда Ренберг, Джессика Блумквист, Анна Хенриксон, Ингар Сигвардсдоттер, Ральф Бек, Сэнна Экман, Чатон Андерсон

О фильме:
Ида и Элбин — счастливая пара. Они отправляются в хижину в лесу, находящуюся в шведских лесах, чтобы весело провести отпуск вместе со своими друзьями. Но за дверями хижины их поджидает зло из темных шведских преданий…



Страна: Швеция
Продолжительность: 01:36:34
Перевод: Профессиональный [многоголосый, закадровый]

Файл
Кодек: h.264
Качество: BDRip-AVC
Видео: MPEG-4 AVC, 2715 Кбит/с, 1024x432, 23,976 кадр/с
Звук:
Русский (AC3, 6 ch, 384 Кбит/с) / Многоголосый закадровый, AzOnFilm
Шведский (AC3, 6 ch, 384 Кбит/с)

Семпл

Автор релиза - Silverok, за Bly-ray Remux спасибо pyha
Звуковая дорожка # 1 получена путем наложения чистого голоса на центральный канал декодированной оригинальной DTS-HD MA дорожки.
Cборка дороги Skazhutin
Сохранены оригинальные главы как на Blu-ray
---[Information] [09.03.2017 0:33:41] x264 [info]: frame I:30 Avg QP:16.57 size: 55063
---[Information] [09.03.2017 0:33:41] x264 [info]: frame P:542 Avg QP:18.22 size: 25338
---[Information] [09.03.2017 0:33:41] x264 [info]: frame B:1969 Avg QP:20.43 size: 10458
General
Unique ID : 208858199511926831565494452881427473925 (0x9D20A04546E61A2F831580CFF2BB2605)
Complete name : D:uTorrentNezhyt.2012.BDRip.AVC.MediaClub.mkv
Format : Matroska
Format version : Version 4 / Version 2
File size : 2.35 GiB
Duration : 1 h 36 min
Overall bit rate : 3 484 kb/s
Encoded date : UTC 2017-03-17 18:58:44 / UTC 2017-03-09T09:36:43Z
Writing application : mkvmerge v9.9.0 ('Pick Up') 64bit
Writing library : libebml v1.3.4 + libmatroska v1.4.5 / Lavf57.7.2

Video
ID : 1
Format : AVC
Format/Info : Advanced Video Codec
Format profile : High@L4.1
Format settings, CABAC : Yes
Format settings, ReFrames : 14 frames
Codec ID : V_MPEG4/ISO/AVC
Duration : 1 h 36 min
Bit rate : 2 715 kb/s
Width : 1 024 pixels
Height : 432 pixels
Display aspect ratio : 2.40:1
Frame rate mode : Constant
Frame rate : 23.976 (24000/1001) FPS
Color space : YUV
Chroma subsampling : 4:2:0
Bit depth : 8 bits
Scan type : Progressive
Bits/(Pixel*Frame) : 0.256
Stream size : 1.79 GiB (76%)
Title : BDRip AVC
Writing library : x264 core 148 r2708 86b7198
Encoding settings : cabac=1 / ref=14 / deblock=1:-3:-3 / analyse=0x3:0x113 / me=umh / subme=11 / psy=1 / psy_rd=1.00:0.10 / mixed_ref=1 / me_range=48 / chroma_me=1 / trellis=2 / 8x8dct=1 / cqm=0 / deadzone=21,11 / fast_pskip=1 / chroma_qp_offset=-3 / threads=12 / lookahead_threads=1 / sliced_threads=0 / nr=0 / decimate=0 / interlaced=0 / bluray_compat=0 / constrained_intra=0 / bframes=16 / b_pyramid=2 / b_adapt=1 / b_bias=0 / direct=1 / weightb=1 / open_gop=0 / weightp=2 / keyint=240 / keyint_min=24 / scenecut=40 / intra_refresh=0 / rc_lookahead=40 / rc=2pass / mbtree=1 / bitrate=2715 / ratetol=1.0 / qcomp=0.60 / qpmin=0 / qpmax=69 / qpstep=4 / cplxblur=20.0 / qblur=0.5 / vbv_maxrate=62500 / vbv_bufsize=78125 / nal_hrd=none / filler=0 / ip_ratio=1.40 / aq=1:1.00
Default : Yes
Forced : No
Color range : Limited
Color primaries : BT.709
Transfer characteristics : BT.709
Matrix coefficients : BT.709
Statistics Tags Issue : mkvmerge v9.9.0 ('Pick Up') 64bit 2017-03-17 18:58:44 / mkvmerge v9.9.0 ('Pick Up') 64bit 2017-03-17 18:58:44 / UTC 2017-03-09T09:36:43Z
FromStats_BitRate : 2715402
FromStats_Duration : 01:36:34.914000000
FromStats_FrameCount : 138939
FromStats_StreamSize : 1966940549

Audio #1
ID : 2
Format : AC-3
Format/Info : Audio Coding 3
Format settings, Endianness : Big
Codec ID : A_AC3
Duration : 1 h 36 min
Bit rate mode : Constant
Bit rate : 384 kb/s
Channel(s) : 6 channels
Channel positions : Front: L C R, Side: L R, LFE
Sampling rate : 48.0 kHz
Frame rate : 31.250 FPS (1536 spf)
Bit depth : 16 bits
Compression mode : Lossy
Delay relative to video : -5 ms
Stream size : 265 MiB (11%)
Title : Многоголосый закадровый, AzOnFilm
Language : Russian
Service kind : Complete Main
Default : Yes
Forced : No
Statistics Tags Issue : mkvmerge v9.9.0 ('Pick Up') 64bit 2017-03-17 18:58:44 / mkvmerge v9.9.0 ('Pick Up') 64bit 2017-03-17 18:58:44 / UTC 2017-03-09T09:36:43Z
FromStats_BitRate : 384000
FromStats_Duration : 01:36:26.784000000
FromStats_FrameCount : 180837
FromStats_StreamSize : 277765632

Audio #2
ID : 3
Format : AC-3
Format/Info : Audio Coding 3
Format settings, Endianness : Big
Codec ID : A_AC3
Duration : 1 h 36 min
Bit rate mode : Constant
Bit rate : 384 kb/s
Channel(s) : 6 channels
Channel positions : Front: L C R, Side: L R, LFE
Sampling rate : 48.0 kHz
Frame rate : 31.250 FPS (1536 spf)
Bit depth : 16 bits
Compression mode : Lossy
Delay relative to video : -5 ms
Stream size : 265 MiB (11%)
Language : Swedish
Service kind : Complete Main
Default : No
Forced : No
Statistics Tags Issue : mkvmerge v9.9.0 ('Pick Up') 64bit 2017-03-17 18:58:44 / mkvmerge v9.9.0 ('Pick Up') 64bit 2017-03-17 18:58:44 / UTC 2017-03-09T09:36:43Z
FromStats_BitRate : 384000
FromStats_Duration : 01:36:26.784000000
FromStats_FrameCount : 180837
FromStats_StreamSize : 277765632

Menu
00:00:00.000 : :Chapter 1
00:09:30.278 : :Chapter 2
00:19:01.057 : :Chapter 3
00:28:31.627 : :Chapter 4
00:38:02.030 : :Chapter 5
00:47:32.516 : :Chapter 6
00:57:03.170 : :Chapter 7
01:06:33.615 : :Chapter 8
01:16:04.310 : :Chapter 9
01:25:35.088 : :Chapter 10


Релиз от: | Silverok


_________________
Проголосуй за трекер Открытый торрент трекер - RUS-MEDIA.ORG

Проголосуй Открытый торрент трекер - RUS-MEDIA.ORG



реклама партнёра


Вернуться к началу
 Профиль Отправить личное сообщение  
 
   Похожие торренты   Автор   Торрент   Размер 
В этой теме нет новых непрочитанных сообщений. Нежить / Wither [ужасы, триллер, 2012] BDRip, Mvo

salma3

225 | 60

1.46 ГБ

В этой теме нет новых непрочитанных сообщений. Нежить / Wither [Ужасы, триллер, 2012] BDRip 1080p, Mvo+Avo+Sub

salma3

25 | 9

13.45 ГБ

В этой теме нет новых непрочитанных сообщений. Коллекционер 2 / The Collection [ужасы, боевик, триллер, 2012] BDRip 720p, Dub [iPad]

salma3

0 | 0

1.73 ГБ

В этой теме нет новых непрочитанных сообщений. Папина доченька / Daddy's Little Girl (Крис Сан) [2012, Ужасы, триллер, BDRip] dvo

Nickolas3435

39 | 3

2.03 ГБ

В этой теме нет новых непрочитанных сообщений. Сайлент Хилл 2 / Silent Hill: Revelation 3D [ужасы, триллер, детектив, 2012] BDRip-AVC, Dub

salma3

48 | 20

2.18 ГБ

В этой теме нет новых непрочитанных сообщений. Поцелуй проклятой / Kiss of the Damned [драма, ужасы, триллер, мелодрама, 2012] BDRip 720p, Mvo

salma3

17 | 7

4.45 ГБ

В этой теме нет новых непрочитанных сообщений. Девочки против мальчиков / Girls Against Boys [ужасы, триллер, драма, 2012] BDRip 1080p, Avo

salma3

54 | 43

7.33 ГБ


Начать новую тему Ответить на тему  [ 1 сообщение ] 




Для Мосгорсуда, Роскомнадзора и рекламодателей:: mosgorsud-torrent[собачка]yandex.ru