Торрент файл
скачать торрент магнет ссылка Добавлен: 17 мар 2017, 12:09
Размер: 1.46 ГБ
Сидеров: 199
Личеров: 43
Статус: (salma3)
Автор

СообщениеДобавлено: 17 мар 2017, 12:09 

Не в сети
Супермодератор
Аватара пользователя
Дата регистрации:
15 фев 2012, 16:44
Возраст: 28
Спасибо: 6928 / 2147
Сообщения: 52986
Год выпуска: 2015
Жанр: криминал
Режиссер: Риччи Харнетт

В ролях: Чарли Хитон, Стивен Беркофф, Люк Мэбли, Крэйг Фэйрбрасс, Риччи Харнетт, Терри Стоун, Лобна Фьютерс, Райан Олива, Слейн Келли

Описание:Главный герой – Карлтон Лич, – бывший футбольный фанат, боец из группы поддержки ФК "Вест Хэм", который ещё в первом фильме успел стать заметной фигурой в криминальном мире Эссекса. В конце первого фильма Карл Лич потерял троих своих друзей, которых настигла тяжелая насильственная смерть. Второй фильм начинается с предварения чёткой темы – этот фильм о том, кто выжил. Зрителю раскрывается новая жизнь Карлтона, где больше жестокости, наркотиков, грязного секса, отвязных поступков и конечно, той специфической работы, где никак не обойтись без жёстких по жизни бойцов



Страна: Великобритания
Продолжительность: 01:51:06
Перевод: Авторский (одноголосый) [Антон Карповский]

Формат: BDRip
Видео: 720x304 (2.37:1), 24.000 fps, XviD build 65 ~1421 kbps, 0.277 bit/pixel
Аудио: 48 kHz, AC3 Dolby Digital, 3/2 (L,C,R,l,r) + LFE ch, ~448 kbps



General
Полное имя : Rise.of.the.Footsoldier.Part.II.2015.BDRip.avi
Формат : AVI
Формат/Информация : Audio Video Interleave
Размер файла : 1,46 Гбайт
Продолжительность : 1 ч. 51 м.
Общий поток : 1878 Кбит/сек
Программа кодирования : VirtualDubMod 1.5.10.2 (build 2540/release)
Библиотека кодирования : VirtualDubMod build 2540/release

Видео
Идентификатор : 0
Формат : MPEG-4 Visual
Профиль формата : Advanced Simple@L5
Параметр BVOP формата : 1
Параметр QPel формата : Нет
Параметр GMC формата : Без точки перехода
Параметр матрицы формата : Default (MPEG)
Идентификатор кодека : XVID
Идентификатор кодека/Подсказка : XviD
Продолжительность : 1 ч. 51 м.
Битрейт : 1421 Кбит/сек
Ширина : 720 пикселей
Высота : 304 пикселя
Соотношение сторон : 2,35:1
Частота кадров : 24,000 кадра/сек
Цветовое пространство : YUV
Субдискретизация насыщенности : 4:2:0
Битовая глубина : 8 бит
Тип развёртки : Прогрессивная
Метод сжатия : С потерями
Бит/(Пиксели*Кадры) : 0.270
Размер потока : 1,10 Гбайт (76%)
Библиотека кодирования : XviD 67

Аудио
Идентификатор : 1
Формат : AC-3
Формат/Информация : Audio Coding 3
Расширение режима : CM (complete main)
Параметр Endianness формата : Big
Идентификатор кодека : 2000
Продолжительность : 1 ч. 51 м.
Вид битрейта : Постоянный
Битрейт : 448 Кбит/сек
Каналы : 6 каналов
Расположение каналов : Front: L C R, Side: L R, LFE
Частота : 48,0 КГц
Частота кадров : 31,250 кадров/сек (1536 spf)
Метод сжатия : С потерями
Размер потока : 356 Мбайт (24%)
Выравнивание : Разделение по промежуткам
Продолжительность промежутка : 42 мс. (1,00 видеокадр)
Время предзагрузки промежутка : 500 мс.
Заголовок : RUS - AVO - Karpovsky




_________________
Проголосуй за трекер Открытый торрент трекер - RUS-MEDIA.ORG

Проголосуй Открытый торрент трекер - RUS-MEDIA.ORG



реклама партнёра


Вернуться к началу
 Профиль Отправить личное сообщение  
 
   Похожие торренты   Автор   Торрент   Размер 
В этой теме нет новых непрочитанных сообщений. Восхождение пехотинца 3 / Rise of the Footsoldier 3 [Криминал, 2017] WEBRip, Dvo

salma3

127 | 23

1.37 ГБ

В этой теме нет новых непрочитанных сообщений. Восхождение пехотинца 3 / Rise of the Footsoldier 3 [Криминал, 2017] WEBRip 720p, Dvo

salma3

68 | 4

2.88 ГБ

В этой теме нет новых непрочитанных сообщений. Паразит: Часть 2 / Kiseijû: Part 2 (Такаси Ямадзаки) [Фантастика, ужасы, 2015] BDRip 720p, dvo

Dracon

586 | 185

4.49 ГБ

В этой теме нет новых непрочитанных сообщений. Голодные игры: Сойка-пересмешница. Часть II / The Hunger Games: Mockingjay - Part 2 [фантастика, триллер, военный, 2015] BDRip-AVC, Dub [iTunes]

salma3

56 | 27

2.85 ГБ

В этой теме нет новых непрочитанных сообщений. Голодные игры: Сойка-пересмешница. Часть II / The Hunger Games: Mockingjay - Part 2 [Фантастика, Приключения, 2015] BDRip 1080p 3D-Video, Dub+Sub [CamRip]

salma3

482 | 86

9.16 ГБ

В этой теме нет новых непрочитанных сообщений. Паразит: Часть 2 / Kiseijû: Part 2 (Такаси Ямадзаки) [Фантастика, ужасы, 2015] HDRip, dvo

Dracon

254 | 16

1.45 ГБ

В этой теме нет новых непрочитанных сообщений. Восхождение Юпитер / Jupiter Ascending [фантастика, боевик, приключения, 2015] BDRip 1080p, Dub+Sub [Лицензия]

salma3

0 | 0

13.19 ГБ


Начать новую тему Ответить на тему  [ 1 сообщение ] 




Для Мосгорсуда, Роскомнадзора и рекламодателей:: mosgorsud-torrent[собачка]yandex.ru
cron