Торрент файл
скачать торрент магнет ссылка Добавлен: 17 мар 2017, 12:02
Размер: 1.33 ГБ
Сидеров: 46
Личеров: 10
Статус: (salma3)
Автор

СообщениеДобавлено: 17 мар 2017, 12:02 

Не в сети
Супермодератор
Аватара пользователя
Дата регистрации:
15 фев 2012, 16:44
Возраст: 28
Спасибо: 6644 / 2146
Сообщения: 46014
Год выхода: 1977
Жанр: Драма, детектив, мистика
Режиссер: Сидни Люмет

В ролях: Ричард Бёртон, Питер Фёрт, Колин Блейкли, Джоан Плаурайт, Гарри Эндрюс, Айлин Эткинс, Дженни Агаттер, Кейт Рид, Джон Уаймэн, Элва Мэй Хувер

О фильме:
Психиатр Мартин Дайсарт расследует дикий случай — ослепление шести лошадей металлическим шипом в конюшне Гэмпшира, в Великобритании. Злодеяние было совершено скромным семнадцатилетним парнем по имени Алан Стрэнг, который является единственным сыном самоуверенного, но робкого отца и благородной, религиозной матери. Дайсарт обнаруживает демонов внутри мальчика и сталкивается лицом к лицу со своими собственными.



Страна: Великобритания, США
Продолжительность: 02:17:55
Перевод: Профессиональный (многоголосый закадровый)

Файл
Кодек: XviD
Качество: HDRip
Видео: 656x352 (1.85:1), 23.976 fps, XviD build 73 ~1205 kbps avg, 0.22 bit/pixel
Звук: 48 kHz, AC3 Dolby Digital, 1/0 (C) ch, ~160 kbps

Семпл

General
Complete name : D:Изготовление рипаEkvus.1977.1.35Ggb HDRip by shkiper.avi
Format : AVI
Format/Info : Audio Video Interleave
File size : 1.33 GiB
Duration : 2 h 17 min
Overall bit rate : 1 375 kb/s
Writing application : VirtualDubMod 1.5.10.3 | www.virtualdub-fr.org || (build 2550/release)
Writing library : VirtualDubMod build 2550/release
Video
ID : 0
Format : MPEG-4 Visual
Format profile : Advanced Simple@L5
Format settings, BVOP : 1
Format settings, QPel : No
Format settings, GMC : No warppoints
Format settings, Matrix : Custom
Codec ID : XVID
Codec ID/Hint : XviD
Duration : 2 h 17 min
Bit rate : 1 206 kb/s
Width : 656 pixels
Height : 352 pixels
Display aspect ratio : 1.85:1
Frame rate : 23.976 (24000/1001) FPS
Color space : YUV
Chroma subsampling : 4:2:0
Bit depth : 8 bits
Scan type : Progressive
Compression mode : Lossy
Bits/(Pixel*Frame) : 0.218
Stream size : 1.16 GiB (88%)
Writing library : XviD 73
Audio
ID : 1
Format : AC-3
Format/Info : Audio Coding 3
Mode extension : CM (complete main)
Format settings, Endianness : Big
Codec ID : 2000
Duration : 2 h 17 min
Bit rate mode : Constant
Bit rate : 160 kb/s
Channel(s) : 1 channel
Channel positions : Front: C
Sampling rate : 48.0 kHz
Frame rate : 31.250 FPS (1536 spf)
Bit depth : 16 bits
Compression mode : Lossy
Stream size : 158 MiB (12%)
Alignment : Split accross interleaves
Interleave, duration : 42 ms (1.00 video frame)
Interleave, preload duratio : 500 ms

Релиз от:


_________________
Проголосуй за трекер Открытый торрент трекер - RUS-MEDIA.ORG

Проголосуй Открытый торрент трекер - RUS-MEDIA.ORG



реклама партнёра


Вернуться к началу
 Профиль Отправить личное сообщение  
 
   Похожие торренты   Автор   Торрент   Размер 
В этой теме нет новых непрочитанных сообщений. 3 женщины / 3 Women [триллер, драма, детектив, 1977] BDRip 1080p, Mvo

salma3

2 | 1

8.73 ГБ

В этой теме нет новых непрочитанных сообщений. Суспирия / Suspiria [ужасы, фэнтези, драма, детектив, 1977] BDRip 720p, Mvo

salma3

57 | 28

7.91 ГБ

В этой теме нет новых непрочитанных сообщений. Убить с интригой / Jian hua yan yu Jiang Nan [боевик, драма, 1977] HDRip, Mvo

salma3

11 | 2

1.46 ГБ

В этой теме нет новых непрочитанных сообщений. Защитные цвета / Barwy ochronne [драма, комедия, 1977] HDRip, Dvo

salma3

11 | 3

1.45 ГБ

В этой теме нет новых непрочитанных сообщений. МакАртур / MacArthur [драма, военный, биография, история, 1977] HDRip, Mvo

salma3

119 | 41

1.45 ГБ

В этой теме нет новых непрочитанных сообщений. Американский друг / Der Amerikanische Freund [триллер, драма, криминал, детектив, 1977] BDRip, Mvo

salma3

73 | 27

2.18 ГБ

В этой теме нет новых непрочитанных сообщений. До свиданья, дорогая / The Goodbye Girl [Драма, мелодрама, комедия, 1977] HDRip, Mvo

salma3

48 | 33

749.07 МБ


Начать новую тему Ответить на тему  [ 1 сообщение ] 




Для Мосгорсуда, Роскомнадзора и рекламодателей:: mosgorsud-torrent[собачка]yandex.ru