Торрент файл
скачать торрент магнет ссылка Добавлен: 16 мар 2017, 12:11
Размер: 1.86 ГБ
Сидеров: 60
Личеров: 7
Статус: (salma3)
Автор

СообщениеДобавлено: 16 мар 2017, 12:11 

Не в сети
Супермодератор
Аватара пользователя
Дата регистрации:
15 фев 2012, 16:44
Возраст: 28
Спасибо: 7290 / 2147
Сообщения: 70562
Производство: США / John Ford Productions
Жанр: Мелодрама, Комедия, Приключения
Режиссер: Джон Форд

Актеры: Джон Уэйн, Ли Марвин, Элизабет Аллен, Джек Уорден, Сесар Ромеро, Дик Форан, Дороти Ламур, Марсель Далио, Майк Мазурки, Жаклин Малуф

Описание:
Трое американских моряков после войны остаются жить на тропическом тихоокеанском островке. Их спокойная размеренная жизнь нарушается, когда на остров в поисках своего отца приезжает юная англичанка Амелия.



Релиз от: Охрана (NNM-CLUB)
Продолжительность: 01:48:37
Перевод: Профессиональный многоголосый закадровый, авторский

Качество видео: DVDRip-AVC
Видео: AVC/H.264, 720x400, ~1870 Kbps
Аудио 1: Русский, AC3, 2 ch, 192 Kbps, 48.0 kHz (МVO, т/к Paramount Channel)
Аудио 2: Русский, AC3, 2 ch, 192 Kbps, 48.0 kHz (AVO, С. Кузнецов)
Аудио 3: Английский, AC3, 2 ch, 192 Kbps, 48.0 kHz (Оригинал)
Язык субтитров: Английский
Вид субтитров: Вшитые отключаемые

General
Unique ID : 249523414608583303733981068685817461610 (0xBBB8762B8D2B080C9F8DF900861CBB6A)
Complete name : F:DownloadsРиф Донована. 1963. NNMCLUB.mkv
Format : Matroska
Format version : Version 4 / Version 2
File size : 1.86 GiB
Duration : 1h 48mn
Overall bit rate : 2 448 Kbps
Encoded date : UTC 2017-03-01 22:24:42
Writing application : mkvmerge v7.0.0 ('Where We Going') 32bit built on Jun 9 2014 15:08:34
Writing library : libebml v1.3.0 + libmatroska v1.4.1
_STATISTICS_WRITING_APP : mkvmerge v7.0.0 ('Where We Going') 32bit built on Jun 9 2014 15:08:34
_STATISTICS_WRITING_DATE_UTC : 2017-03-01 22:24:42
_STATISTICS_TAGS : BPS DURATION NUMBER_OF_FRAMES NUMBER_OF_BYTES
DURATION : 01:46:11.110000000
NUMBER_OF_FRAMES : 807
NUMBER_OF_BYTES : 31837
Video
ID : 1
Format : AVC
Format/Info : Advanced Video Codec
Format profile : High@L3.1
Format settings, CABAC : Yes
Format settings, ReFrames : 11 frames
Codec ID : V_MPEG4/ISO/AVC
Duration : 1h 48mn
Bit rate : 1 870 Kbps
Width : 720 pixels
Height : 400 pixels
Display aspect ratio : 16:9
Frame rate mode : Constant
Frame rate : 23.976 fps
Color space : YUV
Chroma subsampling : 4:2:0
Bit depth : 8 bits
Scan type : Progressive
Bits/(Pixel*Frame) : 0.271
Stream size : 1.38 GiB (74%)
Title : Donovan's Reef
Writing library : x264 core 125 r2208 d9d2288
Encoding settings : cabac=1 / ref=11 / deblock=1:-1:-1 / analyse=0x3:0x133 / me=umh / subme=10 / psy=1 / psy_rd=1.00:0.10 / mixed_ref=1 / me_range=32 / chroma_me=1 / trellis=2 / 8x8dct=1 / cqm=0 / deadzone=21,11 / fast_pskip=0 / chroma_qp_offset=-3 / threads=6 / lookahead_threads=1 / sliced_threads=0 / nr=0 / decimate=0 / interlaced=0 / bluray_compat=0 / constrained_intra=0 / bframes=7 / b_pyramid=2 / b_adapt=2 / b_bias=0 / direct=3 / weightb=1 / open_gop=0 / weightp=2 / keyint=250 / keyint_min=25 / scenecut=40 / intra_refresh=0 / rc_lookahead=60 / rc=2pass / mbtree=1 / bitrate=1870 / ratetol=1.0 / qcomp=0.60 / qpmin=0 / qpmax=69 / qpstep=4 / cplxblur=20.0 / qblur=0.5 / ip_ratio=1.40 / aq=1:1.00
Language : English
Default : Yes
Forced : No
Audio #1
ID : 2
Format : AC-3
Format/Info : Audio Coding 3
Mode extension : CM (complete main)
Format settings, Endianness : Big
Codec ID : A_AC3
Duration : 1h 48mn
Bit rate mode : Constant
Bit rate : 192 Kbps
Channel(s) : 2 channels
Channel positions : Front: L R
Sampling rate : 48.0 KHz
Bit depth : 16 bits
Compression mode : Lossy
Stream size : 149 MiB (8%)
Title : Многоголосый закадровый, т/к Paramount Channel
Language : Russian
Default : Yes
Forced : No
Audio #2
ID : 3
Format : AC-3
Format/Info : Audio Coding 3
Mode extension : CM (complete main)
Format settings, Endianness : Big
Codec ID : A_AC3
Duration : 1h 48mn
Bit rate mode : Constant
Bit rate : 192 Kbps
Channel(s) : 2 channels
Channel positions : Front: L R
Sampling rate : 48.0 KHz
Bit depth : 16 bits
Compression mode : Lossy
Stream size : 149 MiB (8%)
Title : Авторский, С. Кузнецов
Language : Russian
Default : No
Forced : No
Audio #3
ID : 4
Format : AC-3
Format/Info : Audio Coding 3
Mode extension : CM (complete main)
Format settings, Endianness : Big
Codec ID : A_AC3
Duration : 1h 48mn
Bit rate mode : Constant
Bit rate : 192 Kbps
Channel(s) : 2 channels
Channel positions : Front: L R
Sampling rate : 48.0 KHz
Bit depth : 16 bits
Compression mode : Lossy
Stream size : 149 MiB (8%)
Title : Оригинал
Language : English
Default : No
Forced : No
Text
ID : 5
Format : UTF-8
Codec ID : S_TEXT/UTF8
Codec ID/Info : UTF-8 Plain Text
Title : SRT
Language : English
Default : No
Forced : No


_________________
Проголосуй за трекер Открытый торрент трекер - RUS-MEDIA.ORG

Проголосуй Открытый торрент трекер - RUS-MEDIA.ORG


Вернуться к началу
 Профиль Отправить личное сообщение  
 
   Похожие торренты   Автор   Торрент   Размер 
В этой теме нет новых непрочитанных сообщений. Риф Донована / Donovan's Reef [мелодрама, комедия, приключения, 1963] HDTVRip, Mvo

salma3

0 | 1

1.45 ГБ

В этой теме нет новых непрочитанных сообщений. Мозг Донована / Donovan's Brain [ужасы, фантастика, 1953] BDRip 720p, Avo

salma3

17 | 3

3.76 ГБ

В этой теме нет новых непрочитанных сообщений. Добро пожаловать в рай! 2: Риф / Into the Blue 2: The Reef [боевик, триллер, приключения, 2009] DVDRip-AVC, Mvo+Sub

salma3

110 | 26

2.89 ГБ

В этой теме нет новых непрочитанных сообщений. Доведенный до ручки / The Thrill of It All [мелодрама, комедия, 1963] HDRip, Avo

salma3

0 | 0

1.45 ГБ

В этой теме нет новых непрочитанных сообщений. МакЛинток! / McLintock! [мелодрама, комедия, вестерн, 1963] BDRip, Dvo

salma3

15 | 3

1.45 ГБ

В этой теме нет новых непрочитанных сообщений. Шехерезада / Shéhérazade [драма, приключения, 1963] DVDRip, Dvo

salma3

0 | 0

1.45 ГБ

В этой теме нет новых непрочитанных сообщений. Короли солнца / Kings of the Sun [вестерн, приключения, 1963] DVDRip-AVC, Mvo

salma3

111 | 16

1.46 ГБ


Начать новую тему Ответить на тему  [ 1 сообщение ] 




Для Мосгорсуда, Роскомнадзора и рекламодателей:: mosgorsud-torrent[собачка]yandex.ru
cron