Торрент файл
скачать торрент магнет ссылка Добавлен: 15 мар 2017, 17:12
Размер: 1022.38 МБ
Сидеров: 0
Личеров: 0
Статус: (salma3)
Автор

СообщениеДобавлено: 15 мар 2017, 17:12 

Не в сети
Супермодератор
Аватара пользователя
Дата регистрации:
15 фев 2012, 16:44
Возраст: 29
Спасибо: 7328 / 2147
Сообщения: 73698
Год выхода: 1979
Жанр: драма
Режиссер: Ричард Майклс

В ролях: Сэлли Стразерс, Джеймс Вудс, Рэнди Хеллер, Титос Вандис, Пенни Сантон, Рут Мэннинг, Джеффри Бравин, Роберт Дави, Эрика Йон, Энтони Пондзини, Джереми Лихт

О фильме:
Пара, чей сын жил с диагнозом "умственно отсталый", была шокирована, узнав, что диагноз был ошибочный, и что их сын глухой, а не умственно отсталый.


Производство: США / Charles Fries Productions
Продолжительность: 01:34:59
Перевод: любительский (одноголосый закадровый)[viktor_2838]

Файл
Качество: WEBRip-AVC
Формат: MKV
Видео: MPEG-4 AVC, 640x480 (4:3), 29.970 fps, 1219 kbps, 0.132 bit/pixel
Аудио #1: русский, AC3 2.0, 48 kHz, 128 kbps
Аудио #2: английский, AC3 2.0, 44.1 kHz, 128 kbps
Субтитры: русские [r123], английские вшитые отключаемые

Формат : Matroska
Версия формата : Version 4 / Version 2
Размер файла : 1022 Мбайт
Продолжительность : 1 ч. 34 м.
Общий поток : 1505 Кбит/сек
Дата кодирования : UTC 2017-03-09 13:12:44
Программа кодирования : mkvmerge v7.9.0 ('Birds') 64bit
Библиотека кодирования : libebml v1.3.1 + libmatroska v1.4.2

Видео
Идентификатор : 1
Формат : AVC
Формат/Информация : Advanced Video Codec
Профиль формата : Baseline@L3
Параметр CABAC формата : Нет
Параметр ReFrames формата : 1 кадр
Параметр GOP формата : M=1, N=25
Режим смешивания : Container profile=Baseline@4.1
Идентификатор кодека : V_MPEG4/ISO/AVC
Продолжительность : 1 ч. 34 м.
Битрейт : 1219 Кбит/сек
Ширина : 640 пикселей
Высота : 480 пикселей
Соотношение сторон : 4:3
Режим частоты кадров : Постоянный
Частота кадров : 29,970 кадров/сек
Частота кадров в оригинале : 29,000 кадров/сек
Цветовое пространство : YUV
Субдискретизация насыщенности : 4:2:0
Битовая глубина : 8 бит
Тип развёртки : Прогрессивная
Бит/(Пиксели*Кадры) : 0.132
Размер потока : 828 Мбайт (81%)
Язык : English
Default : Да
Forced : Нет

Аудио #1
Идентификатор : 2
Формат : AC-3
Формат/Информация : Audio Coding 3
Расширение режима : CM (complete main)
Параметр Endianness формата : Big
Идентификатор кодека : A_AC3
Продолжительность : 1 ч. 34 м.
Вид битрейта : Постоянный
Битрейт : 128 Кбит/сек
Каналы : 2 канала
Расположение каналов : Front: L R
Частота : 48,0 КГц
Метод сжатия : С потерями
Размер потока : 87,0 Мбайт (9%)
Заголовок : VO (viktor_2838)
Язык : Russian
Default : Да
Forced : Нет

Аудио #2
Идентификатор : 3
Формат : AC-3
Формат/Информация : Audio Coding 3
Расширение режима : CM (complete main)
Параметр Endianness формата : Big
Идентификатор кодека : A_AC3
Продолжительность : 1 ч. 34 м.
Вид битрейта : Постоянный
Битрейт : 128 Кбит/сек
Каналы : 2 канала
Расположение каналов : Front: L R
Частота : 44,1 КГц
Метод сжатия : С потерями
Размер потока : 87,0 Мбайт (9%)
Заголовок : Original
Язык : English
Default : Нет
Forced : Нет

Текст #1
Идентификатор : 4
Формат : UTF-8
Идентификатор кодека : S_TEXT/UTF8
Идентификатор кодека/Информация : UTF-8 Plain Text
Заголовок : r123
Язык : Russian
Default : Да
Forced : Нет

Текст #2
Идентификатор : 5
Формат : UTF-8
Идентификатор кодека : S_TEXT/UTF8
Идентификатор кодека/Информация : UTF-8 Plain Text
Язык : English
Default : Нет
Forced : Нет

Релиз от:


_________________
Проголосуй за трекер Открытый торрент трекер - RUS-MEDIA.ORG

Проголосуй Открытый торрент трекер - RUS-MEDIA.ORG


Вернуться к началу
 Профиль Отправить личное сообщение  
 
   Похожие торренты   Автор   Торрент   Размер 
В этой теме нет новых непрочитанных сообщений. Джона Хекс / Jonah Hex [боевик, фэнтези, триллер, 2010] BDRemux 1080р, Mvo

salma3

37 | 8

16.48 ГБ

В этой теме нет новых непрочитанных сообщений. Меня зовут Джиг Робот / Lo chiamavano Jeeg Robot [Боевик, фантастика, драма, триллер, 2015] WEBRip 720p, Avo

salma3

1475 | 36

1.58 ГБ

В этой теме нет новых непрочитанных сообщений. Ганновер - Стрит / Hanover Street [боевик, драма, мелодрама, 1979] WEBRip-AVC, Mvo

salma3

0 | 1

745.98 МБ

В этой теме нет новых непрочитанных сообщений. Ганновер - Стрит / Hanover Street [боевик, драма, мелодрама, 1979] WEBRip-AVC, Mvo

salma3

11 | 8

1.46 ГБ

В этой теме нет новых непрочитанных сообщений. Северный Даллас Сорок / North Dallas Forty [драма, комедия, спорт, 1979] WEBRip, Mvo

salma3

0 | 0

1.45 ГБ

В этой теме нет новых непрочитанных сообщений. Убийство Джона Леннона / The Killing of John Lennon [драма, криминал, 2006] DVDRip, Dvo

salma3

88 | 9

1.95 ГБ

В этой теме нет новых непрочитанных сообщений. Меня зовут Дэвид / I Am David [драма, 2003] WEB-DL 1080p, Mvo

salma3

68 | 21

9.46 ГБ


Начать новую тему Ответить на тему  [ 1 сообщение ] 




Для Мосгорсуда, Роскомнадзора и рекламодателей:: mosgorsud-torrent[собачка]yandex.ru
cron