Торрент файл
скачать торрент магнет ссылка Добавлен: 15 мар 2017, 12:17
Размер: 1.87 ГБ
Сидеров: 27
Личеров: 5
Статус: (salma3)
Автор

СообщениеДобавлено: 15 мар 2017, 12:17 

Не в сети
Супермодератор
Аватара пользователя
Дата регистрации:
15 фев 2012, 16:44
Возраст: 29
Спасибо: 7377 / 2147
Сообщения: 75902
Год выхода: 1966
Жанр: комедия, драма
Режиссер: Фрэнсис Форд Коппола

В ролях: Питер Кастнер, Элизабет Хартман, Джеральдин Пэйдж, Рип Торн, Тони Билл, Джули Харрис, Карен Блэк, Дольф Свит, Фрэнк Симпсон, Рональд Колби, Нина Варела

О фильме:
19-летний Бернард живёт с родителями, которые буквально не дают ему свободно вздохнуть. Он работает в библиотеке, где ответственный пост занимает его отец. Эми, коллега Бернарда, постоянно оказывает ему знаки внимания, но он не знает, как на это реагировать. Всё начинает меняться в тот день, когда отец волевым решением отправляет Бернарда в самостоятельное "плавание" - отселяет сына в съёмную комнату и предоставляет ему относительную свободу. Но выясняется, что родители Бернарда оказываются менее готовыми к независимой жизни сына, чем он сам...



Страна: США
Продолжительность: 01:37:33.408
Перевод: Профессиональный (двухголосый закадровый) [ГТРК "Культура"]

Файл
Кодек: h.264
Качество: DVDRip-AVC Исходник R1 Warner Archive Collection
Видео: 720x480 (16:9) @ 853x480, 23.976 fps, AVC, ~2356 Kbps, 0.284 bits/pixel
Звук1: Русский, 48.0 KHz, AC3, 2 ch, 192 Kbps
Звук2: Английский, 48.0 KHz, AC3, 2 ch, 192 Kbps

Общее
Уникальный идентификатор : 245274872372006649681654758382337868748 (0xB88638DD8EBE24FF8695F0D22B9943CC)
Полное имя : D:FILMSTi_teper_bolshoy_malchik.1966.DVDRip-AVC.mkv
Формат : Matroska
Версия формата : Version 4 / Version 2
Размер файла : 1,87 Гбайт
Продолжительность : 1 ч. 37 м.
Общий поток : 2742 Кбит/сек
Дата кодирования : UTC 2017-03-08 11:51:15
Программа кодирования : mkvmerge v9.9.0 ('Pick Up') 64bit
Библиотека кодирования : libebml v1.3.4 + libmatroska v1.4.5
Видео
Идентификатор : 1
Формат : AVC
Формат/Информация : Advanced Video Codec
Профиль формата : High@L4.1
Параметр CABAC формата : Да
Параметр ReFrames формата : 11 кадров
Идентификатор кодека : V_MPEG4/ISO/AVC
Продолжительность : 1 ч. 37 м.
Битрейт : 2356 Кбит/сек
Ширина : 720 пикселей
Высота : 480 пикселей
Соотношение сторон : 16:9
Режим частоты кадров : Постоянный
Частота кадров : 23,976 (24000/1001) кадра/сек
Цветовое пространство : YUV
Субдискретизация насыщенности : 4:2:0
Битовая глубина : 8 бит
Тип развёртки : Прогрессивная
Бит/(Пиксели*Кадры) : 0.284
Размер потока : 1,61 Гбайт (86%)
Библиотека кодирования : x264 core 148 r2638 7599210
Настройки программы : cabac=1 / ref=11 / deblock=1:0:0 / analyse=0x3:0x133 / me=umh / subme=11 / psy=1 / psy_rd=1.10:0.15 / mixed_ref=1 / me_range=48 / chroma_me=1 / trellis=2 / 8x8dct=1 / cqm=0 / deadzone=21,11 / fast_pskip=0 / chroma_qp_offset=-3 / threads=8 / lookahead_threads=1 / sliced_threads=0 / nr=0 / decimate=0 / interlaced=0 / bluray_compat=0 / constrained_intra=0 / bframes=7 / b_pyramid=2 / b_adapt=2 / b_bias=0 / direct=3 / weightb=1 / open_gop=0 / weightp=2 / keyint=240 / keyint_min=23 / scenecut=40 / intra_refresh=0 / rc_lookahead=60 / rc=2pass / mbtree=0 / bitrate=2356 / ratetol=1.0 / qcomp=0.60 / qpmin=0 / qpmax=69 / qpstep=4 / cplxblur=20.0 / qblur=0.5 / vbv_maxrate=40000 / vbv_bufsize=50000 / nal_hrd=none / filler=0 / ip_ratio=1.40 / pb_ratio=1.30 / aq=1:1.00
Default : Нет
Forced : Нет
Цветовой диапазон : Limited
Коэффициенты матрицы : BT.601
Аудио #1
Идентификатор : 2
Формат : AC-3
Формат/Информация : Audio Coding 3
Расширение режима : CM (complete main)
Параметр Endianness формата : Big
Идентификатор кодека : A_AC3
Продолжительность : 1 ч. 37 м.
Вид битрейта : Постоянный
Битрейт : 192 Кбит/сек
Каналы : 2 канала
Расположение каналов : Front: L R
Частота : 48,0 КГц
Частота кадров : 31,250 кадров/сек (1536 spf)
Битовая глубина : 16 бит
Метод сжатия : С потерями
Размер потока : 134 Мбайт (7%)
Язык : Russian
Default : Да
Forced : Нет
Аудио #2
Идентификатор : 3
Формат : AC-3
Формат/Информация : Audio Coding 3
Расширение режима : CM (complete main)
Параметр Endianness формата : Big
Идентификатор кодека : A_AC3
Продолжительность : 1 ч. 37 м.
Вид битрейта : Постоянный
Битрейт : 192 Кбит/сек
Каналы : 2 канала
Расположение каналов : Front: L R
Частота : 48,0 КГц
Частота кадров : 31,250 кадров/сек (1536 spf)
Битовая глубина : 16 бит
Метод сжатия : С потерями
Размер потока : 134 Мбайт (7%)
Язык : English
Default : Нет
Forced : Нет
Меню
00:00:00.000 : en:Chapter 01
00:10:00.000 : en:Chapter 02
00:20:00.000 : en:Chapter 03
00:30:00.000 : en:Chapter 04
00:40:00.000 : en:Chapter 05
00:50:00.000 : en:Chapter 06
01:00:00.000 : en:Chapter 07
01:10:00.000 : en:Chapter 08
01:20:00.000 : en:Chapter 09
01:30:00.000 : en:Chapter 10

Релиз от: Temperest


_________________
Проголосуй за трекер Открытый торрент трекер - RUS-MEDIA.ORG

Проголосуй Открытый торрент трекер - RUS-MEDIA.ORG


Вернуться к началу
 Профиль Отправить личное сообщение  
 
   Похожие торренты   Автор   Торрент   Размер 
В этой теме нет новых непрочитанных сообщений. Мальчик-игрушка / Boy Toy [Комедия, 2011] DVDRip, Mvo

salma3

25 | 16

1.37 ГБ

В этой теме нет новых непрочитанных сообщений. Большой куш для маленькой леди / A Big Hand for the Little Lady [Вестерн, драма, комедия, 1966] DVDRip, Mvo

salma3

0 | 0

1.5 ГБ

В этой теме нет новых непрочитанных сообщений. Милый мальчик / Smukke dreng [драма, 1993] DVDRip, Avo

salma3

0 | 1

1.34 ГБ

В этой теме нет новых непрочитанных сообщений. Мои племянники / Min søsters børn [комедия, семейный, 1966] DVDRip, Avo

salma3

8 | 0

1.47 ГБ

В этой теме нет новых непрочитанных сообщений. Нежный проходимец / Tendre voyou [комедия, 1966] DVDRip, Mvo

salma3

0 | 0

1.37 ГБ

В этой теме нет новых непрочитанных сообщений. Элфи / Alfie [драма, комедия, 1966] WEB-DL 1080p, Mvo

salma3

1 | 1

9.78 ГБ

В этой теме нет новых непрочитанных сообщений. Садовник из Аржантей / Le jardinier d'Argenteuil [комедия, криминал, 1966] DVDRip, Mvo

salma3

21 | 10

1.46 ГБ


Начать новую тему Ответить на тему  [ 1 сообщение ] 




Для Мосгорсуда, Роскомнадзора и рекламодателей:: mosgorsud-torrent[собачка]yandex.ru
cron