Торрент файл
скачать торрент магнет ссылка Добавлен: 13 мар 2017, 16:53
Размер: 2.2 ГБ
Сидеров: 21
Личеров: 34
Статус: (salma3)
Автор

СообщениеДобавлено: 13 мар 2017, 16:53 

Не в сети
Супермодератор
Аватара пользователя
Дата регистрации:
15 фев 2012, 16:44
Возраст: 28
Спасибо: 6640 / 2146
Сообщения: 45613
Год выпуска: 1971
Жанр: фантастика, боевик
Режиссер: Дон Тейлор

В ролях: Родди МакДауэлл, Ким Хантер, Брэдфорд Диллман, Natalie Trundy, Эрик Браден, Уильям Уиндом, Сэл Минео, Альберт Сэлми, Джон Рэндольф, Гарри Лоутер

Описание:
Это третья серия из пяти, рассказывающих о жизни на Земле в конце 40-го века от Рождества Христова. Две самые продвинутые обезьяны — Зира и Корнелий — настолько далеко зашли в своих научных исследованиях, что обнаружили способ перемещения во времени и решили разобраться в причинах безобразий, происходящих на родной планете. Для этого они отправляются в двадцатый век и оказываются в американском Лос-Анджелесе. Почему это они решили, что в таком виде в Америке можно разгуливать просто так, безнаказанно? Ошибочка вышла! Янки устраивают настоящее «сафари» на экзотические биологические объекты...



Страна: США
Продолжительность: 01:37:32
Перевод: Профессиональный (многоголосый, закадровый)
Субтитры: Английские

Формат: BDRip-AVC
Видео: 1024x424 (16:9), 23.976 fps, AVC MPEG-4 (x264) ~2328 Kbps avg, 0.224 bit/pixel
Ауди#1: Русский 48 kHz, AC3, 6 ch, ~448 kbps avg
Ауди#2: Английский 48 kHz, AC3, 6 ch, ~448 kbps avg


Общее
Уникальный идентификатор : 240635115206788756222262453360664554498 (0xB508A32CF5B7E87E9B76D59081BCAC02)
Полное имя : F:\TREKER\ТЕМР\escape_from_the_planet_of_the_apes_[tfile.ru] (1).mkv
Формат : Matroska
Версия формата : Version 2
Размер файла : 2,20 Гбайт
Продолжительность : 1 ч. 37 м.
Общий поток : 3230 Кбит/сек
Название фильма : Escape from the Planet of the Apes (1971)
Дата кодирования : UTC 2017-03-13 11:33:58
Программа кодирования : mkvmerge v4.0.0 ('The Stars were mine') сборка от Jun 6 2010 16:18:42
Библиотека кодирования : libebml v1.0.0 + libmatroska v1.0.0
Обложка : Yes
Attachments : cover.jpg / PTC55F.ttf / PTC75F.ttf / PTN57F.ttf / PTN77F.ttf / PTS55F.ttf / PTS56F.ttf / PTS75F.ttf / PTS76F.ttf

Видео
Идентификатор : 1
Формат : AVC
Формат/Информация : Advanced Video Codec
Профиль формата :
Параметр CABAC формата : Да
Параметр ReFrames формата : 6 кадров
Идентификатор кодека : V_MPEG4/ISO/AVC
Продолжительность : 1 ч. 37 м.
Битрейт : 2328 Кбит/сек
Ширина : 1024 пикселя
Высота : 424 пикселя
Соотношение сторон : 2,40:1
Режим частоты кадров : Постоянный
Частота кадров : 23,976 (24000/1001) кадра/сек
Цветовое пространство : YUV
Субдискретизация насыщенности : 4:2:0
Битовая глубина : 8 бит
Тип развёртки : Прогрессивная
Бит/(Пиксели*Кадры) : 0.224
Размер потока : 1,55 Гбайт (70%)
Заголовок : escape_from_the_planet_of_the_apes_[tfile.ru]
Библиотека кодирования : x264 core 146 r2538 121396c
Настройки программы : cabac=1 / ref=6 / deblock=1:-1:-1 / analyse=0x3:0x133 / me=umh / subme=10 / psy=1 / psy_rd=1.00:0.15 / mixed_ref=1 / me_range=24 / chroma_me=1 / trellis=2 / 8x8dct=1 / cqm=0 / deadzone=21,11 / fast_pskip=0 / chroma_qp_offset=-3 / threads=12 / lookahead_threads=1 / sliced_threads=0 / nr=0 / decimate=1 / interlaced=0 / bluray_compat=0 / constrained_intra=0 / bframes=3 / b_pyramid=2 / b_adapt=2 / b_bias=0 / direct=3 / weightb=1 / open_gop=0 / weightp=2 / keyint=250 / keyint_min=23 / scenecut=40 / intra_refresh=0 / rc_lookahead=50 / rc=2pass / mbtree=1 / bitrate=2328 / ratetol=1.0 / qcomp=0.69 / qpmin=0 / qpmax=69 / qpstep=4 / cplxblur=20.0 / qblur=0.5 / ip_ratio=1.40 / aq=1:1.00
Язык : English
Default : Нет
Forced : Нет

Аудио #1
Идентификатор : 2
Формат : AC-3
Формат/Информация : Audio Coding 3
Расширение режима : CM (complete main)
Параметр Endianness формата : Big
Идентификатор кодека : A_AC3
Продолжительность : 1 ч. 37 м.
Вид битрейта : Постоянный
Битрейт : 448 Кбит/сек
Каналы : 6 каналов
Расположение каналов : Front: L C R, Side: L R, LFE
Частота : 48,0 КГц
Частота кадров : 31,250 кадров/сек (1536 spf)
Битовая глубина : 16 бит
Метод сжатия : С потерями
Размер потока : 313 Мбайт (14%)
Заголовок : Профессиональный (двухголосый закадровый)
Default : Да
Forced : Нет

Аудио #2
Идентификатор : 3
Формат : AC-3
Формат/Информация : Audio Coding 3
Расширение режима : CM (complete main)
Параметр Endianness формата : Big
Идентификатор кодека : A_AC3
Продолжительность : 1 ч. 37 м.
Вид битрейта : Постоянный
Битрейт : 448 Кбит/сек
Каналы : 6 каналов
Расположение каналов : Front: L C R, Side: L R, LFE
Частота : 48,0 КГц
Частота кадров : 31,250 кадров/сек (1536 spf)
Битовая глубина : 16 бит
Метод сжатия : С потерями
Размер потока : 313 Мбайт (14%)
Заголовок : Оригинал
Язык : English
Default : Нет
Forced : Нет

Текст
Идентификатор : 4
Формат : UTF-8
Идентификатор кодека : S_TEXT/UTF8
Идентификатор кодека/Информация : UTF-8 Plain Text
Язык : English
Default : Нет
Forced : Нет

Меню
00:00:00.000 : en:00:00:00.000
00:04:15.505 : en:00:04:15.505
00:07:19.689 : en:00:07:19.689
00:11:50.543 : en:00:11:50.543
00:15:24.799 : en:00:15:24.799
00:17:33.511 : en:00:17:33.511
00:20:12.086 : en:00:20:12.086
00:22:22.967 : en:00:22:22.967
00:32:07.259 : en:00:32:07.259
00:35:44.934 : en:00:35:44.934
00:41:52.969 : en:00:41:52.969
00:45:33.522 : en:00:45:33.522
00:50:14.428 : en:00:50:14.428
00:55:31.203 : en:00:55:31.203
01:01:06.746 : en:01:01:06.746
01:03:07.784 : en:01:03:07.784
01:05:39.060 : en:01:05:39.060
01:10:17.296 : en:01:10:17.296
01:12:24.590 : en:01:12:24.590
01:15:43.789 : en:01:15:43.789
01:19:14.166 : en:01:19:14.166
01:23:24.708 : en:01:23:24.708
01:26:04.993 : en:01:26:04.993
01:27:35.500 : en:01:27:35.500
01:31:09.547 : en:01:31:09.547
01:36:02.757 : en:01:36:02.757
01:36:49.804 : en:01:36:49.804



_________________
Проголосуй за трекер Открытый торрент трекер - RUS-MEDIA.ORG

Проголосуй Открытый торрент трекер - RUS-MEDIA.ORG



реклама партнёра


Вернуться к началу
 Профиль Отправить личное сообщение  
 
   Похожие торренты   Автор   Торрент   Размер 
В этой теме нет новых непрочитанных сообщений. Планета обезьян: Война / War for the Planet of the Apes [фантастика, боевик, триллер, 2017] BDRip, Dub+Sub [Лицензия]

salma3

906 | 242

2.18 ГБ

В этой теме нет новых непрочитанных сообщений. Планета обезьян: Война / War for the Planet of the Apes [фантастика, боевик, триллер, 2017] BDRip, Dub+Sub [Лицензия]

salma3

2074 | 1009

1.46 ГБ

В этой теме нет новых непрочитанных сообщений. Планета обезьян: Война / War for the Planet of the Apes [фантастика, боевик, триллер, 2017] BDRip 1080p, Dub+Sub [Лицензия]

salma3

321 | 25

12.58 ГБ

В этой теме нет новых непрочитанных сообщений. Планета обезьян: Война / War for the Planet of the Apes [фантастика, боевик, триллер, 2017] BDRip 720p, Dub+Sub [Лицензия]

salma3

0 | 0

6.22 ГБ

В этой теме нет новых непрочитанных сообщений. Планета обезьян: Война / War for the Planet of the Apes [фантастика, боевик, триллер, 2017] WEB-DL 1080р, Dub

salma3

377 | 147

5.39 ГБ

В этой теме нет новых непрочитанных сообщений. Планета обезьян: Война / War for the Planet of the Apes [фантастика, боевик, драма, приключения, 2017] HDTVRip, Mvo

salma3

678 | 95

2.18 ГБ

В этой теме нет новых непрочитанных сообщений. Планета обезьян: Война / War for the Planet of the Apes [фантастика, боевик, триллер, 2017] HDRip, Dub [iTunes]

salma3

14251 | 5963

1.46 ГБ


Начать новую тему Ответить на тему  [ 1 сообщение ] 




Для Мосгорсуда, Роскомнадзора и рекламодателей:: mosgorsud-torrent[собачка]yandex.ru