Торрент файл
скачать торрент магнет ссылка Добавлен: 05 мар 2017, 16:29
Размер: 1.99 ГБ
Сидеров: 79
Личеров: 23
Статус: (salma3)
Автор

СообщениеДобавлено: 05 мар 2017, 16:29 

В сети
Супермодератор
Аватара пользователя
Дата регистрации:
15 фев 2012, 16:44
Возраст: 28
Спасибо: 6593 / 2145
Сообщения: 44208
Год выпуска: 2010
Жанр: драма
Режиссер: Майкл Д. Селлерс

В ролях: Саманта Джейд, Кэйтлин Уэкс, Дэвид Кит, Пол Уэсли, Ивана Миличевич, Леа Энеас, Джордж Харрис, Кристин Адамс, Эва-Джин Софиа Янг, Белла Кинг

Описание:
Алиса Харкер, 18-летняя девушка, исследователь дельфинов, которая работает вместе со своим отцом Хоком — известным ученым. У нее со взрослым и немного таинственным туристом Крейгом завязываются романтические отношения. Но сердце Алисы разбивается, когда выясняется, что Крейг ведет двойную игру. Он является офицером ВМС США, и участвует в миссии, которая угрожает исследовательскому центру и диким дельфинам, с одним из которых, Раском, у Алисы мощная связь. Шпионаж, заговор, похищение людей, кладбище мертвых дельфинов и китов рядом с подводными испытаниями ВМС США Sonar… Алиса и Хок вместе пытаются спасти и сохранить дикого дельфина Раска и других морских млекопитающих, в то время как Крейг стоит перед сложной моральной дилеммой, которая заставит его сделать выбор раз и навсегда.



Страна: США
Продолжительность: 01:32:26
Перевод: Профессиональный (многоголосый закадровый)

Формат: BDRip-AVC
Видео: 1024x576 (16:9) 23,976 (24000/1001) fps, MPEG4 AVC (x264) , 2180 Kbps avg, 0.154 Bits/Pixel
Аудио #1: Русский: 48 kHz, AC3, 3/2 (L,C,R,l,r) + LFE ch, ~448.00 kbps avg
Аудио #2: Английский: 48 kHz, AC3, 3/2 (L,C,R,l,r) + LFE ch, ~448.00 kbps avg

Общее
Уникальный идентификатор : 201079565216282647505524244764762807382 (0x974683FD684D283A9C1B181D37AF9C56)
Полное имя : E:\МОИ РАЗДАЧИ\Приключения на Багамах (2010)\фильм\Priklyucheniya_na_Bagamah.2010.BDRip-AVC.mkv
Формат : Matroska
Версия формата : Version 4 / Version 2
Размер файла : 1,99 Гбайт
Продолжительность : 1 ч. 32 м.
Общий поток : 3076 Кбит/сек
Название фильма : Beneath the Blue (2010)
Дата кодирования : UTC 2016-08-02 16:47:16
Программа кодирования : mkvmerge v6.9.1 ('Blue Panther') 64bit built on Apr 18 2014 18:23:38
Библиотека кодирования : libebml v1.3.0 + libmatroska v1.4.1

Видео
Идентификатор : 1
Формат : AVC
Формат/Информация : Advanced Video Codec
Профиль формата :
Параметр CABAC формата : Да
Параметр ReFrames формата : 14 кадров
Идентификатор кодека : V_MPEG4/ISO/AVC
Продолжительность : 1 ч. 32 м.
Битрейт : 2180 Кбит/сек
Ширина : 1024 пикселя
Высота : 576 пикселей
Соотношение сторон : 16:9
Режим частоты кадров : Постоянный
Частота кадров : 23,976 (24000/1001) кадра/сек
Цветовое пространство : YUV
Субдискретизация насыщенности : 4:2:0
Битовая глубина : 8 бит
Тип развёртки : Прогрессивная
Бит/(Пиксели*Кадры) : 0.154
Размер потока : 1,37 Гбайт (69%)
Заголовок : Beneath the Blue (2010)
Библиотека кодирования : x264 core 148 r2638 7599210
Настройки программы : cabac=1 / ref=14 / deblock=1:-3:-3 / analyse=0x3:0x133 / me=umh / subme=11 / psy=1 / psy_rd=1.00:0.00 / mixed_ref=1 / me_range=32 / chroma_me=1 / trellis=2 / 8x8dct=1 / cqm=0 / deadzone=21,11 / fast_pskip=1 / chroma_qp_offset=-2 / threads=6 / lookahead_threads=1 / sliced_threads=0 / nr=0 / decimate=1 / interlaced=0 / bluray_compat=0 / constrained_intra=0 / bframes=5 / b_pyramid=2 / b_adapt=2 / b_bias=0 / direct=3 / weightb=1 / open_gop=0 / weightp=2 / keyint=240 / keyint_min=23 / scenecut=40 / intra_refresh=0 / rc_lookahead=60 / rc=2pass / mbtree=1 / bitrate=2180 / ratetol=1.0 / qcomp=0.60 / qpmin=0 / qpmax=69 / qpstep=4 / cplxblur=20.0 / qblur=0.5 / vbv_maxrate=50000 / vbv_bufsize=62500 / nal_hrd=none / filler=0 / ip_ratio=1.40 / aq=1:1.00
Язык : English
Default : Да
Forced : Нет

Аудио #1
Идентификатор : 2
Формат : AC-3
Формат/Информация : Audio Coding 3
Расширение режима : CM (complete main)
Параметр Endianness формата : Big
Идентификатор кодека : A_AC3
Продолжительность : 1 ч. 32 м.
Вид битрейта : Постоянный
Битрейт : 448 Кбит/сек
Каналы : 6 каналов
Расположение каналов : Front: L C R, Side: L R, LFE
Частота : 48,0 КГц
Частота кадров : 31,250 кадров/сек (1536 spf)
Метод сжатия : С потерями
Размер потока : 296 Мбайт (15%)
Заголовок : AC3, 6 ch, 448 Kbps, MVO
Язык : Russian
Default : Да
Forced : Нет

Аудио #2
Идентификатор : 3
Формат : AC-3
Формат/Информация : Audio Coding 3
Расширение режима : CM (complete main)
Параметр Endianness формата : Big
Идентификатор кодека : A_AC3
Продолжительность : 1 ч. 32 м.
Вид битрейта : Постоянный
Битрейт : 448 Кбит/сек
Каналы : 6 каналов
Расположение каналов : Front: L C R, Side: L R, LFE
Частота : 48,0 КГц
Частота кадров : 31,250 кадров/сек (1536 spf)
Метод сжатия : С потерями
Размер потока : 296 Мбайт (15%)
Заголовок : AC3, 6 ch, 448 Kbps, Original
Язык : English
Default : Нет
Forced : Нет

Текст #1
Идентификатор : 4
Формат : UTF-8
Идентификатор кодека : S_TEXT/UTF8
Идентификатор кодека/Информация : UTF-8 Plain Text
Язык : Russian
Default : Нет
Forced : Нет

Текст #2
Идентификатор : 5
Формат : UTF-8
Идентификатор кодека : S_TEXT/UTF8
Идентификатор кодека/Информация : UTF-8 Plain Text
Язык : English
Default : Нет
Forced : Нет

Меню
00:00:00.000 : en:Chapter 01
00:02:44.370 : en:Chapter 02
00:07:29.380 : en:Chapter 03
00:19:19.420 : en:Chapter 04
00:26:38.280 : en:Chapter 05
00:34:57.390 : en:Chapter 06
00:45:22.650 : en:Chapter 07
00:59:03.120 : en:Chapter 08
01:07:36.790 : en:Chapter 09
01:16:51.840 : en:Chapter 10
01:28:52.260 : en:Chapter 11



_________________
Проголосуй за трекер Открытый торрент трекер - RUS-MEDIA.ORG

Проголосуй Открытый торрент трекер - RUS-MEDIA.ORG



реклама партнёра


Вернуться к началу
 Профиль Отправить личное сообщение  
 
   Похожие торренты   Автор   Торрент   Размер 
В этой теме нет новых непрочитанных сообщений. Приключения на Багамах / Beneath the Blue [драма, 2010] BDRip 1080p, Mvo+Sub

salma3

29 | 19

6.16 ГБ

В этой теме нет новых непрочитанных сообщений. Что скрывает ложь / What Lies Beneath [ужасы, триллер, драма, детектив, 2000] BDRip, Dub

salma3

128 | 65

2.18 ГБ

В этой теме нет новых непрочитанных сообщений. Что скрывает ложь / What Lies Beneath [ужасы, триллер, драма, детектив, 2000] BDRip 1080p, Dub

salma3

0 | 0

11.76 ГБ

В этой теме нет новых непрочитанных сообщений. Ниже холма 60 / Beneath Hill 60 [Драма, военный, исторический, 2010] ВDRip 720р, Dvo+Sub

salma3

315 | 22

4.36 ГБ

В этой теме нет новых непрочитанных сообщений. Что скрывает ложь / What Lies Beneath [ужасы, фэнтези, триллер, 2000] BDRip 720p, Dub

salma3

8 | 2

7.52 ГБ

В этой теме нет новых непрочитанных сообщений. Sharka Blue! (171 ролик) (aka Skarka Blue, Sarka Blue, Dawn, Kelly, Dawn, Sarka, Sarka K., Sharka, Shatka Blue, Csharka) MegaPack / Белокурая очаровашка! [Oral, Lesbo, All Sex, Solo, Interracial, DP, Anal, Group, Facial, Hardcore]

salma3

14 | 145

48.96 ГБ

В этой теме нет новых непрочитанных сообщений. Жасмин / Blue Jasmine [драма, 2013] BDRip-AVC, Dub

salma3

58 | 2

2.12 ГБ


Начать новую тему Ответить на тему  [ 1 сообщение ] 




Для Мосгорсуда, Роскомнадзора и рекламодателей:: mosgorsud-torrent[собачка]yandex.ru