Торрент файл
скачать торрент магнет ссылка Добавлен: 28 фев 2017, 21:34
Размер: 1.46 ГБ
Сидеров: 46
Личеров: 7
Статус: (salma3)
Автор

СообщениеДобавлено: 28 фев 2017, 21:34 

Не в сети
Супермодератор
Аватара пользователя
Дата регистрации:
15 фев 2012, 16:44
Возраст: 28
Спасибо: 6672 / 2146
Сообщения: 46181
Год выхода: 1987
Жанр: Боевик, триллер, драма
Режиссер: Том Холланд

В ролях: Вупи Голдберг, Сэм Эллиотт, Рубен Бладес, Харрис Юлин, Джон П. Райан, Дженнифер Уоррен, Брэд Дуриф, Майк Джолли, Чарльз Хэллахан, Дэвид Харрис

О фильме:
Рита - полицейский, сотрудница отдела по борьбе с наркотиками. Мужественная женщина, практически в одиночку, выслеживает крупную банду наркодельцов, распространяющих смертельный наркотик, носящий название «Роковая красотка»...



Выпущено: США, Япония / Metro-Goldwyn-Mayer, CST Telecommunications
Продолжительность: 01:44:17
Перевод: Профессиональный [двухголосый] |Союз-Совенчер /VHS|

Файл
Формат: AVI
Качество: HDRip
Видео: XviD 73, 1797 kb/s, 720x384
Звук: AC3, 2ch (L,R), 192 кбит/с

General
Complete name : D:Смертельная красотка.(1987).HDRIP.[-=DoMiNo=-].avi
Format : AVI
Format/Info : Audio Video Interleave
File size : 1.46 GiB
Duration : 1 h 44 min
Overall bit rate : 1 998 kb/s
Writing library : VirtualDub build 35491/release

Video
ID : 0
Format : MPEG-4 Visual
Format profile : Advanced Simple@L5
Format settings, BVOP : 1
Format settings, QPel : No
Format settings, GMC : No warppoints
Format settings, Matrix : Custom
Codec ID : XVID
Codec ID/Hint : XviD
Duration : 1 h 44 min
Bit rate : 1 797 kb/s
Width : 720 pixels
Height : 384 pixels
Display aspect ratio : 1.85:1
Frame rate : 23.976 (24000/1001) FPS
Color space : YUV
Chroma subsampling : 4:2:0
Bit depth : 8 bits
Scan type : Progressive
Compression mode : Lossy
Bits/(Pixel*Frame) : 0.271
Stream size : 1.31 GiB (90%)
Writing library : XviD 73

Audio
ID : 1
Format : AC-3
Format/Info : Audio Coding 3
Mode extension : CM (complete main)
Format settings, Endianness : Big
Codec ID : 2000
Duration : 1 h 44 min
Bit rate mode : Constant
Bit rate : 192 kb/s
Channel(s) : 2 channels
Channel positions : Front: L R
Sampling rate : 48.0 kHz
Frame rate : 31.250 FPS (1536 spf)
Bit depth : 16 bits
Compression mode : Lossy
Stream size : 143 MiB (10%)
Alignment : Aligned on interleaves
Interleave, duration : 42 ms (1.00 video frame)
Interleave, preload duratio : 512 ms


_________________
Проголосуй за трекер Открытый торрент трекер - RUS-MEDIA.ORG

Проголосуй Открытый торрент трекер - RUS-MEDIA.ORG



реклама партнёра


Вернуться к началу
 Профиль Отправить личное сообщение  
 
   Похожие торренты   Автор   Торрент   Размер 
В этой теме нет новых непрочитанных сообщений. Смертельная красотка / Fatal Beauty [Боевик, триллер, драма, 1987] HDRip-AVC, Mvo

salma3

30 | 9

2.19 ГБ

В этой теме нет новых непрочитанных сообщений. Смертельная красотка / Fatal Beauty [Боевик, триллер, драма, комедия, криминал, 1987] BDRip 1080p, Dvo+Avo

salma3

42 | 22

13.34 ГБ

В этой теме нет новых непрочитанных сообщений. Смертельное очарование / Смертельная привлекательность / Fatal Charm [Детектив, триллер, 1990] HDTVRip, Avo

salma3

1 | 0

1.4 ГБ

В этой теме нет новых непрочитанных сообщений. Отходная молитва / A Prayer for the Dying [Боевик, триллер, драма, 1987] HDRip-AVC, Mvo

salma3

30 | 5

745.65 МБ

В этой теме нет новых непрочитанных сообщений. Светлое будущее 2: Ураганный огонь / A Better Tomorrow 2 [боевик, триллер, драма, 1987] HDRip, Mvo

salma3

116 | 19

1.44 ГБ

В этой теме нет новых непрочитанных сообщений. Полицейский-самурай 2: Смертельная месть / Samurai Cop 2: Deadly Vengeance [боевик, триллер, криминал, 2015] HDRip, Avo

salma3

55 | 4

1.27 ГБ

В этой теме нет новых непрочитанных сообщений. Смерть телохранителя / Охваченный пламенем / Man on Fire [боевик, триллер, драма, 1987] HDRip, Avo [Гаврилов]

salma3

71 | 16

1.46 ГБ


Начать новую тему Ответить на тему  [ 1 сообщение ] 




Для Мосгорсуда, Роскомнадзора и рекламодателей:: mosgorsud-torrent[собачка]yandex.ru