Торрент файл
скачать торрент магнет ссылка Добавлен: 24 фев 2017, 21:18
Размер: 1.45 ГБ
Сидеров: 48
Личеров: 44
Статус: (salma3)
Автор

СообщениеДобавлено: 24 фев 2017, 21:18 

В сети
Супермодератор
Аватара пользователя
Дата регистрации:
15 фев 2012, 16:44
Возраст: 28
Спасибо: 6928 / 2147
Сообщения: 52976
Год выпуска: 2009
Режиссер: Кристофер Смит
Жанр: триллер, ужасы, детектив

В ролях: Мелисса Джордж, Джошуа МакИвор, Джек Тейлор, Майкл Дорман, Генри Никсон, Рейчал Карпани, Эмма Ланг, Лиам Хемсворт, Брайан Пробетс

Описание:
Грег приглашает свою подругу Джесс, молодую мать-одиночку, провести день на яхте в кругу своих друзей. Начавшийся сильный шторм переворачивает судно, и оставшиеся в живых вынуждены дожидаться помощи, цепляясь за перевернутый корпус яхты. Спасение приходит в виде огромного океанического лайнера. Судно оказывается пустым, часы на борту остановились. Но они не одни на этом огромном корабле - за ними кто-то неустанно следит...



Страна: Великобритания, Австралия
Продолжительность: 01:38:52
Перевод: Профессиональный (многоголосый закадровый)[R5]

Формат: HDRip-AVC
Видео: 1024 x 432 (2:40:1), 23.976 fps, AVC (х264) , ~ 1617 Kbps, 0.152 bit/pixel
Аудио: 48 kHz, AC3 Dolby Digital, 3/2 (L,C,R,l,r) + LFE ch, ~448 kbps

General
Unique ID : 287970976476298585688053261780985453140 (0xD8A53152E3362FE96924A70F221E1A54)
Complete name : C:\Users\Юрик\Downloads\Triangle.2009_[tfile.ru].mkv
Format : Matroska
Format version : Version 2
File size : 1.45 GiB
Duration : 1h 38mn
Overall bit rate : 2 106 Kbps
Writing application : Lavf55.12.100
Writing library : Lavf55.12.100

Video
ID : 2
Format : AVC
Format/Info : Advanced Video Codec
Format profile :
Format settings, CABAC : Yes
Format settings, ReFrames : 1 frame
Format settings, GOP : M=1, N=12
Codec ID : V_MPEG4/ISO/AVC
Duration : 1h 38mn
Bit rate : 1 617 Kbps
Width : 1 024 pixels
Height : 432 pixels
Display aspect ratio : 2.40:1
Frame rate mode : Constant
Frame rate : 23.976 fps
Color space : YUV
Chroma subsampling : 4:2:0
Bit depth : 8 bits
Scan type : Progressive
Bits/(Pixel*Frame) : 0.152
Stream size : 1.12 GiB (77%)
Default : Yes
Forced : No

Audio
ID : 1
Format : AC-3
Format/Info : Audio Coding 3
Mode extension : CM (complete main)
Format settings, Endianness : Big
Codec ID : A_AC3
Duration : 1h 38mn
Bit rate mode : Constant
Bit rate : 448 Kbps
Channel(s) : 6 channels
Channel positions : Front: L C R, Side: L R, LFE
Sampling rate : 48.0 KHz
Bit depth : 32 bits
Compression mode : Lossy
Stream size : 317 MiB (21%)
Default : Yes
Forced : No




_________________
Проголосуй за трекер Открытый торрент трекер - RUS-MEDIA.ORG

Проголосуй Открытый торрент трекер - RUS-MEDIA.ORG



реклама партнёра


Вернуться к началу
 Профиль Отправить личное сообщение  
 
   Похожие торренты   Автор   Торрент   Размер 
В этой теме нет новых непрочитанных сообщений. Треугольник / Triangle [детектив, триллер, ужасы, 2009] BDRip-AVC, Dvo

salma3

100 | 12

744.84 МБ

В этой теме нет новых непрочитанных сообщений. Треугольник / The Triangle [ужасы, детектив, 2016] WEB-DLRip, Mvo

salma3

379 | 72

1.37 ГБ

В этой теме нет новых непрочитанных сообщений. Треугольник / The Triangle [ужасы, детектив, 2016] WEB-DLRip 720p, Mvo

salma3

134 | 33

2.78 ГБ

В этой теме нет новых непрочитанных сообщений. Бермудский треугольник / The Bermuda Triangle [мистика, 1978] DVDRip, Mvo

salma3

254 | 14

1.36 ГБ

В этой теме нет новых непрочитанных сообщений. Железный треугольник / The Iron Triangle [драма, военный, 1989] DVDRip, Dvo

salma3

27 | 12

1.45 ГБ

В этой теме нет новых непрочитанных сообщений. Треугольник / Triangle / Tie saam gok [боевик, драма, приключения, 2007] BDRemux 1080p, Dvo+Avo

salma3

11 | 24

26.22 ГБ

В этой теме нет новых непрочитанных сообщений. Сэм был здесь / Sam Was Here [ужасы, триллер, детектив, 2016] HDRip, Avo

salma3

184 | 143

780.59 МБ


Начать новую тему Ответить на тему  [ 1 сообщение ] 




Для Мосгорсуда, Роскомнадзора и рекламодателей:: mosgorsud-torrent[собачка]yandex.ru
cron