Торрент файл
скачать торрент магнет ссылка Добавлен: 22 фев 2017, 15:18
Размер: 2.91 ГБ
Сидеров: 51
Личеров: 18
Статус: (salma3)
Автор

СообщениеДобавлено: 22 фев 2017, 15:18 

В сети
Супермодератор
Аватара пользователя
Дата регистрации:
15 фев 2012, 16:44
Возраст: 28
Спасибо: 6474 / 2129
Сообщения: 41034
Год выпуска: 2004
Жанр: драма, музыка, биография, мюзикл
Режиссер: Кевин Спейси

В ролях:Кевин Спейси, Кейт Босворт, Джон Гудман, Боб Хоскинс, Бренда Блетин, Грета Скакки, Кэролайн Аарон, Питер Чинкотти, Майкл Бирн

Описание:
История жизни легенды мировой музыки, обладателя 2 премий «Грэмми», «Золотого Глобуса» и номинации на премию «Оскар» — Бобби Дэрина. Для Бобби Дэрина представлением была вся его жизнь. Именно шоу заставляло биться его сердце, даже если вне сцены он был на грани смерти. Правдивый рассказ о пути от бедности до богатства, о мальчике из Бронкса, который прошел этот путь и стал идолом поп-культуры…



Страна: Германия / Великобритания
Продолжительность: 01:58:47
Перевод:Профессиональный (полное дублирование)
Субтитры:русские, английские

Качество:BDRip-AVC
Видео: 1048x446 (2.35:1), 23.976 fps, MPEG-4 AVC ~2 615 kbps avg
Аудио №1: 48.0 kHz, AC3 Dolby Digital, 3/2 (L,C,R,l,r) + LFE ch, ~448 kbps | RUS
Аудио №2: 48.0 kHz, AC3 Dolby Digital, 3/2 (L,C,R,l,r) + LFE ch, ~448 kbps | ENG
Формат субтитров: UTF-8 Plain Text



Unique ID : 194416732745255394506853102634734236440 (0x92434CFC895AA1889B037C169130B318)
Format : Matroska
Format version : Version 4 / Version 2
File size : 2.91 GiB
Duration : 1h 58mn
Overall bit rate : 3 511 Kbps
Encoded date : UTC 2017-02-20 11:34:17
Writing application : mkvmerge v9.9.0 ('Pick Up') 64bit
Writing library : libebml v1.3.4 + libmatroska v1.4.5

Video #1
ID : 1
Format : AVC
Format/Info : Advanced Video Codec
Format profile : High@L4.1
Format settings, CABAC : Yes
Format settings, ReFrames : 13 frames
Codec ID : V_MPEG4/ISO/AVC
Duration : 1h 58mn
Bit rate : 2 615 Kbps
Width : 1 048 pixels
Height : 446 pixels
Display aspect ratio : 2.35:1
Frame rate mode : Constant
Frame rate : 23.976 (24000/1001) fps
Color space : YUV
Chroma subsampling : 4:2:0
Bit depth : 8 bits
Scan type : Progressive
Bits/(Pixel*Frame) : 0.233
Stream size : 2.17 GiB (74%)
Writing library : x264 core 148 r2638 7599210
Encoding settings : cabac=1 / ref=13 / deblock=1:-3:-2 / analyse=0x3:0x133 / me=umh / subme=10 / psy=1 / psy_rd=1.00:0.00 / mixed_ref=1 / me_range=32 / chroma_me=1 / trellis=2 / 8x8dct=1 / cqm=0 / deadzone=21,11 / fast_pskip=0 / chroma_qp_offset=-2 / threads=6 / lookahead_threads=1 / sliced_threads=0 / nr=0 / decimate=1 / interlaced=0 / bluray_compat=0 / constrained_intra=0 / bframes=11 / b_pyramid=2 / b_adapt=2 / b_bias=0 / direct=1 / weightb=1 / open_gop=0 / weightp=2 / keyint=250 / keyint_min=23 / scenecut=40 / intra_refresh=0 / rc=2pass / mbtree=0 / bitrate=2615 / ratetol=1.0 / qcomp=0.65 / qpmin=0 / qpmax=69 / qpstep=4 / cplxblur=20.0 / qblur=0.5 / ip_ratio=1.40 / pb_ratio=1.30 / aq=3:0.90
Language : English
Default : Yes
Forced : No

Audio #2
ID : 2
Format : AC-3
Format/Info : Audio Coding 3
Mode extension : CM (complete main)
Format settings, Endianness : Big
Codec ID : A_AC3
Duration : 1h 58mn
Bit rate mode : Constant
Bit rate : 448 Kbps
Channel(s) : 6 channels
Channel positions : Front: L C R, Side: L R, LFE
Sampling rate : 48.0 KHz
Frame rate : 31.250 fps (1536 spf)
Compression mode : Lossy
Stream size : 380 MiB (13%)
Language : Russian
Default : Yes
Forced : No

Audio #3
ID : 3
Format : AC-3
Format/Info : Audio Coding 3
Mode extension : CM (complete main)
Format settings, Endianness : Big
Codec ID : A_AC3
Duration : 1h 58mn
Bit rate mode : Constant
Bit rate : 448 Kbps
Channel(s) : 6 channels
Channel positions : Front: L C R, Side: L R, LFE
Sampling rate : 48.0 KHz
Frame rate : 31.250 fps (1536 spf)
Compression mode : Lossy
Stream size : 380 MiB (13%)
Language : English
Default : No
Forced : No

Text #4
ID : 4
Format : UTF-8
Codec ID : S_TEXT/UTF8
Codec ID/Info : UTF-8 Plain Text
Duration : 1h 52mn
Bit rate : 94 bps
Count of elements : 1222
Stream size : 78.1 KiB (0%)
Language : Russian
Default : No
Forced : No

Text #5
ID : 5
Format : UTF-8
Codec ID : S_TEXT/UTF8
Codec ID/Info : UTF-8 Plain Text
Duration : 1h 52mn
Bit rate : 89 bps
Count of elements : 1568
Stream size : 73.8 KiB (0%)
Language : English
Default : No
Forced : No


_________________
Проголосуй за трекер Открытый торрент трекер - RUS-MEDIA.ORG

Проголосуй Открытый торрент трекер - RUS-MEDIA.ORG



реклама партнёра


Вернуться к началу
 Профиль Отправить личное сообщение  
 
   Похожие торренты   Автор   Торрент   Размер 
В этой теме нет новых непрочитанных сообщений. У моря / Beyond the Sea [драма, музыка, биография, мюзикл, 2004] 2004, BDRemux 1080р, Dub+Sub

salma3

25 | 18

19.38 ГБ

В этой теме нет новых непрочитанных сообщений. Большой веселый мюзикл / The Big Gay Musical [Комедия, мюзикл, драма, мелодрама, музыка, 2009] BDRip 720p, Avo+Sub

salma3

20 | 5

3.82 ГБ

В этой теме нет новых непрочитанных сообщений. Кутерьма / Topsy-Turvy (Майк Ли / Mike Leigh) [1999г., Великобритания, мюзикл, драма, комедия, биография, музыка, HDRip] DVO

Alfredovich

22 | 3

2.18 ГБ

В этой теме нет новых непрочитанных сообщений. В сердце моря / In the Heart of the Sea (боевик, триллер, драма, приключения, биография, история, 2015) BDRip | A

marya111

63 | 3

2.18 ГБ

В этой теме нет новых непрочитанных сообщений. В сердце моря / In the Heart of the Sea [боевик, триллер, драма, приключения, биография, история, 2015] BDRip-AVC, Dub+Sub [iTunes]

salma3

3409 | 498

2.69 ГБ

В этой теме нет новых непрочитанных сообщений. Ла бамба / La Bamba [драма, биография, музыка, 1987] BDRip, Mvo

salma3

26 | 4

1.45 ГБ

В этой теме нет новых непрочитанных сообщений. Танцовщица / La danseuse ( драма, биография, музыка, 2016) BDRip | iTunes

marya111

44 | 4

2.03 ГБ


Начать новую тему Ответить на тему  [ 1 сообщение ] 




Для Мосгорсуда, Роскомнадзора и рекламодателей:: mosgorsud-torrent[собачка]yandex.ru