Торрент файл
скачать торрент магнет ссылка Добавлен: 22 фев 2017, 11:13
Размер: 2.4 ГБ
Сидеров: 40
Личеров: 16
Статус: (salma3)
Автор

СообщениеДобавлено: 22 фев 2017, 11:13 

Не в сети
Супермодератор
Аватара пользователя
Дата регистрации:
15 фев 2012, 16:44
Возраст: 30
Спасибо: 8112 / 2147
Сообщения: 93395
Год выхода: 2011
Жанр: драма
Режиссер: Йона Левис, Кэлвин Томас

В ролях: Гэбриел дель Кастилло Маллалли, Клаудия Дей, Дон Керр, Наташа Аллан, Emily Henry, Кэндис Баркин, Yaari Magenheim, Брайан Скотт, Andrea Verginella Paina, Эстер Рейс

О фильме:
Джесс хочет быть фотохудожником, но считает, что средний класс Торонто, в окружении которого он живет, не оставляет ему возможности по-настоящему подготовиться к будущей жизни. В одной книге из библиотеки он прочитал, что "вы никогда не станете настоящим художником, если не рисковали, не испытывали острых ощущений и не занимались любовью с женщиной". Теперь Джесс знает, что ему нужно искать, случай знакомит его с молодой соседкой Эми.



Страна: Канада
Продолжительность: 01:35:11
Перевод: любительский [одноголосный, закадровый]

Файл
Кодек: H.264
Качество: DVDRip-AVC
Видео: AVC, 1472x623 (2.35:1), 23.976 fps ~ 3000 Kbps
Звук:
AC3, 48 KHz 2 ch ~ 224 Hb/s (русский)
AC3, 48 KHz 6 ch ~ 384 Kb/s (английский)
Субтитры: русские (отдельно)
Общее
Уникальный идентификатор : 178205706727696637424771584491021570108 (0x86112BB1FF054F3DBCF52A14EF4A903C)
Полное имя : Q:TorFЭми ДжорджAmy George.mkv
Формат : Matroska
Версия формата : Version 4 / Version 2
Размер файла : 2,40 Гбайт
Продолжительность : 1 ч. 35 м.
Общий поток : 3610 Кбит/сек
Дата кодирования : UTC 2016-06-12 20:03:52
Программа кодирования : mkvmerge v7.9.0 ('Birds') 64bit
Библиотека кодирования : libebml v1.3.1 + libmatroska v1.4.2
DURATION : 01:35:03.808000000
NUMBER_OF_FRAMES : 178244
NUMBER_OF_BYTES : 159706624
_STATISTICS_WRITING_APP : mkvmerge v7.9.0 ('Birds') 64bit
_STATISTICS_WRITING_DATE_UTC : 2016-06-12 20:03:52
_STATISTICS_TAGS : BPS DURATION NUMBER_OF_FRAMES NUMBER_OF_BYTES
Видео
Идентификатор : 1
Формат : AVC
Формат/Информация : Advanced Video Codec
Профиль формата : High@L4.1
Параметр CABAC формата : Да
Параметр ReFrames формата : 4 кадра
Идентификатор кодека : V_MPEG4/ISO/AVC
Продолжительность : 1 ч. 35 м.
Битрейт : 3000 Кбит/сек
Ширина : 1472 пикселя
Высота : 624 пикселя
Соотношение сторон : 2,35:1
Частота кадров : 23,976 кадра/сек
Цветовое пространство : YUV
Субдискретизация насыщенности : 4:2:0
Битовая глубина : 8 бит
Тип развёртки : Прогрессивная
Бит/(Пиксели*Кадры) : 0.136
Размер потока : 1,95 Гбайт (81%)
Библиотека кодирования : x264 core 122
Настройки программы : cabac=1 / ref=4 / deblock=1:0:0 / analyse=0x3:0x113 / me=hex / subme=7 / psy=1 / psy_rd=1.00:0.00 / mixed_ref=1 / me_range=16 / chroma_me=1 / trellis=1 / 8x8dct=1 / cqm=0 / deadzone=21,11 / fast_pskip=1 / chroma_qp_offset=-2 / threads=6 / sliced_threads=0 / slices=4 / nr=0 / decimate=1 / interlaced=0 / bluray_compat=0 / constrained_intra=0 / bframes=4 / b_pyramid=2 / b_adapt=2 / b_bias=0 / direct=1 / weightb=1 / open_gop=0 / weightp=2 / keyint=240 / keyint_min=24 / scenecut=40 / intra_refresh=0 / rc_lookahead=50 / rc=2pass / mbtree=1 / bitrate=3000 / ratetol=1.0 / qcomp=0.60 / qpmin=3 / qpmax=69 / qpstep=4 / cplxblur=20.0 / qblur=0.5 / vbv_maxrate=40000 / vbv_bufsize=30000 / nal_hrd=none / ip_ratio=1.40 / aq=1:1.00
Default : Да
Forced : Нет
Основные цвета : BT.709-5, BT.1361, IEC 61966-2-4, SMPTE RP177
Характеристики трансфера : BT.709-5, BT.1361
Коэффициенты матрицы : BT.709-5, BT.1361, IEC 61966-2-4 709, SMPTE RP177
Аудио #1
Идентификатор : 2
Формат : AC-3
Формат/Информация : Audio Coding 3
Расширение режима : CM (complete main)
Идентификатор кодека : A_AC3
Продолжительность : 1 ч. 35 м.
Вид битрейта : Постоянный
Битрейт : 224 Кбит/сек
Каналы : 2 канала
Расположение каналов : Front: L R
Частота : 48,0 КГц
Битовая глубина : 16 бит
Метод сжатия : С потерями
Размер потока : 153 Мбайт (6%)
Язык : Russian
Default : Да
Forced : Нет
Аудио #2
Идентификатор : 3
Формат : AC-3
Формат/Информация : Audio Coding 3
Расширение режима : CM (complete main)
Идентификатор кодека : A_AC3
Продолжительность : 1 ч. 35 м.
Вид битрейта : Постоянный
Битрейт : 384 Кбит/сек
Каналы : 6 каналов
Расположение каналов : Front: L C R, Side: L R, LFE
Частота : 48,0 КГц
Битовая глубина : 16 бит
Метод сжатия : С потерями
Размер потока : 261 Мбайт (11%)
Язык : English
Default : Нет
Forced : Нет


_________________
Проголосуй за трекер Открытый торрент трекер - RUS-MEDIA.ORG

Проголосуй Открытый торрент трекер - RUS-MEDIA.ORG


Книжный торрент трекер



Вернуться к началу
 Профиль Отправить личное сообщение  
 
   Похожие торренты   Автор   Торрент   Размер 
В этой теме нет новых непрочитанных сообщений. Зона тьмы / Shadowzone [ужасы, фантастика, 1990] DVDRip-AVC, Avo

salma3

0 | 0

1.35 ГБ

В этой теме нет новых непрочитанных сообщений. Смерть от искушения / Искушение / Def By Temptation [ужасы, 1990] DVDRip-AVC, Avo

salma3

0 | 0

1.78 ГБ

В этой теме нет новых непрочитанных сообщений. Глаз - убийца / The Killer Eye [ужасы, фантастика, 1999] DVDRip-AVC, Avo

salma3

0 | 0

1.48 ГБ

В этой теме нет новых непрочитанных сообщений. Зона будущего / Future Zone [боевик, фантастика, 1990] DVDRip-AVC, Avo

salma3

0 | 0

1.46 ГБ

В этой теме нет новых непрочитанных сообщений. Распутница / Lady Libertine [драма, мелодрама, 1984] HDRip-AVC, Avo

K15

1 | 0

1.41 ГБ

В этой теме нет новых непрочитанных сообщений. Долина смерти / Death Valley [ужасы, триллер, криминал, 1982] BDRip-AVC, Avo

salma3

0 | 0

2.18 ГБ

В этой теме нет новых непрочитанных сообщений. Джордж из джунглей / George of the Jungle [Боевик, мелодрама, комедия, 1997] WEB-DL 1080p, Mvo

salma3

0 | 1

10.21 ГБ


Начать новую тему Ответить на тему  [ 1 сообщение ] 




Для Мосгорсуда, Роскомнадзора и рекламодателей:: mosgorsud-torrent[собачка]yandex.ru
cron