Торрент файл
скачать торрент магнет ссылка Добавлен: 18 фев 2017, 13:57
Размер: 2.35 ГБ
Сидеров: 27
Личеров: 21
Статус: (salma3)
Автор

СообщениеДобавлено: 18 фев 2017, 13:57 

Не в сети
Супермодератор
Аватара пользователя
Дата регистрации:
15 фев 2012, 16:44
Возраст: 28
Спасибо: 6642 / 2146
Сообщения: 45738
Год выпуска: 1974
Жанр: боевик, триллер, комедия
Режиссер: Гай Хэмилтон

В ролях: Роджер Мур, Кристофер Ли, Бритт Экланд, Мод Эдамс, Эрве Вилешез, Клифтон Джеймс, Ричард Лу, О Сун Тек, Марк Лоуренс, Бернард Ли

Описание:
Агент 007 получает задание найти и вернуть секретное оборудование, с помощью которого террористы смогут использовать солнечную энергию как мощнейшее оружие. Чтобы помешать Бонду выполнить задание, на него натравливают самого опасного и неуловимого наемного убийцу по имени Скараманга. Этот мерзавец отличается особым шиком, ведь в своей работе он использует оружие, изготовленное из чистого золота. Он неустанно идет по следам Бонда, и во время очередной погони Джеймсу Бонду приходится совершить на своем автомобиле захватывающий дух затяжной прыжок с оборотом на 360 градусов.



Страна: Великобритания
Продолжительность: 02:05:13
Перевод: Профессиональный (многоголосый закадровый)

Формат: BDRip-AVC
Видео: 720x384 (1,85:1), 25,000 fps, MPEG4 AVC (x264), ~2353 Kbps avg, 0.340 bit/pixel
Аудио: Русский 48 kHz, AC3, 6 ch ~ 448 Kbps


Общее
Уникальный идентификатор : 205493218570775791509791113036512604943 (0x9A988DE6B243857AB9B7013FA7B7B30F)
Полное имя : F:\TREKER\ТЕМР\09_man_with_golden_gun_[tfile.ru].mkv
Формат : Matroska
Версия формата : Version 2
Размер файла : 2,35 Гбайт
Продолжительность : 1 ч. 59 м.
Общий поток : 2801 Кбит/сек
Название фильма : 09_man_with_golden_gun_[tfile.ru]
Дата кодирования : UTC 2017-02-15 08:00:34
Программа кодирования : mkvmerge v4.0.0 ('The Stars were mine') сборка от Jun 6 2010 16:18:42
Библиотека кодирования : libebml v1.0.0 + libmatroska v1.0.0
Обложка : Yes
Attachments : cover.jpg

Видео
Идентификатор : 1
Формат : AVC
Формат/Информация : Advanced Video Codec
Профиль формата :
Параметр CABAC формата : Да
Параметр ReFrames формата : 6 кадров
Идентификатор кодека : V_MPEG4/ISO/AVC
Продолжительность : 1 ч. 59 м.
Битрейт : 2353 Кбит/сек
Ширина : 720 пикселей
Высота : 384 пикселя
Соотношение сторон : 1,85:1
Режим частоты кадров : Постоянный
Частота кадров : 25,000 кадров/сек
Цветовое пространство : YUV
Субдискретизация насыщенности : 4:2:0
Битовая глубина : 8 бит
Тип развёртки : Прогрессивная
Бит/(Пиксели*Кадры) : 0.340
Размер потока : 1,92 Гбайт (82%)
Заголовок : 09_man_with_golden_gun_[tfile.ru]
Библиотека кодирования : x264 core 146 r2538 121396c
Настройки программы : cabac=1 / ref=6 / deblock=1:-1:-1 / analyse=0x3:0x133 / me=umh / subme=10 / psy=1 / psy_rd=1.00:0.15 / mixed_ref=1 / me_range=24 / chroma_me=1 / trellis=2 / 8x8dct=1 / cqm=0 / deadzone=21,11 / fast_pskip=0 / chroma_qp_offset=-3 / threads=12 / lookahead_threads=1 / sliced_threads=0 / nr=0 / decimate=1 / interlaced=0 / bluray_compat=0 / constrained_intra=0 / bframes=3 / b_pyramid=2 / b_adapt=2 / b_bias=0 / direct=1 / weightb=1 / open_gop=0 / weightp=2 / keyint=250 / keyint_min=25 / scenecut=40 / intra_refresh=0 / rc_lookahead=50 / rc=abr / mbtree=1 / bitrate=2353 / ratetol=1.0 / qcomp=0.69 / qpmin=0 / qpmax=69 / qpstep=4 / ip_ratio=1.40 / aq=1:1.00
Язык : English
Default : Нет
Forced : Нет

Аудио
Идентификатор : 2
Формат : AC-3
Формат/Информация : Audio Coding 3
Расширение режима : CM (complete main)
Параметр Endianness формата : Big
Идентификатор кодека : A_AC3
Продолжительность : 1 ч. 59 м.
Вид битрейта : Постоянный
Битрейт : 448 Кбит/сек
Каналы : 6 каналов
Расположение каналов : Front: L C R, Side: L R, LFE
Частота : 48,0 КГц
Частота кадров : 31,250 кадров/сек (1536 spf)
Битовая глубина : 16 бит
Метод сжатия : С потерями
Размер потока : 384 Мбайт (16%)
Заголовок : Профессиональный (многоголосый, закадровый)
Язык : Russian
Default : Нет
Forced : Нет

Меню
00:00:00.000 : en:Chapter 1
00:07:56.240 : en:Chapter 2
00:10:21.760 : en:Chapter 3
00:14:20.520 : en:Chapter 4
00:19:07.880 : en:Chapter 5
00:20:37.520 : en:Chapter 6
00:23:54.000 : en:Chapter 7
00:26:53.240 : en:Chapter 8
00:31:54.720 : en:Chapter 9
00:35:11.400 : en:Chapter 10
00:38:02.160 : en:Chapter 11
00:42:14.520 : en:Chapter 12
00:46:27.440 : en:Chapter 13
00:49:42.720 : en:Chapter 14
00:54:25.320 : en:Chapter 15
00:56:17.560 : en:Chapter 16
01:00:46.560 : en:Chapter 17
01:02:43.040 : en:Chapter 18
01:05:05.200 : en:Chapter 19
01:11:47.720 : en:Chapter 20
01:16:06.280 : en:Chapter 21
01:23:41.280 : en:Chapter 22
01:27:21.320 : en:Chapter 23
01:29:56.200 : en:Chapter 24
01:32:57.680 : en:Chapter 25
01:37:50.240 : en:Chapter 26
01:41:10.480 : en:Chapter 27
01:44:02.120 : en:Chapter 28
01:47:59.760 : en:Chapter 29
01:54:00.960 : en:Chapter 30
01:56:58.480 : en:Chapter 31
01:58:36.480 : en:Chapter 32


Релиз от:


_________________
Проголосуй за трекер Открытый торрент трекер - RUS-MEDIA.ORG

Проголосуй Открытый торрент трекер - RUS-MEDIA.ORG



реклама партнёра


Вернуться к началу
 Профиль Отправить личное сообщение  
 
   Похожие торренты   Автор   Торрент   Размер 
В этой теме нет новых непрочитанных сообщений. Человек с пистолетом / Man With A Gun [Детектив, триллер, 1995] DVDRip-AVC, Mvo

salma3

45 | 5

1.88 ГБ

В этой теме нет новых непрочитанных сообщений. Воин с золотым шестом / Pendekar Tongkat Emas [Боевик, драма, 2014] BDRip, Mvo [СВ Студия]

salma3

1115 | 311

1.45 ГБ

В этой теме нет новых непрочитанных сообщений. Человек, который слишком мало знал / The Man Who Knew Too Little [боевик, триллер, комедия, 1997] BDRip 720p, Dub

salma3

90 | 28

4.91 ГБ

В этой теме нет новых непрочитанных сообщений. Якудза / The Yakuza [боевик, триллер, драма, криминал, 1974] BDRip 720p, Dvo+Sub [НТВ]

salma3

75 | 56

6.71 ГБ

В этой теме нет новых непрочитанных сообщений. ...иначе мы рассердимся / ...altrimenti ci arrabbiamo! [Боевик, комедия, 1974] BDRip, Dvo

salma3

62 | 2

1.63 ГБ

В этой теме нет новых непрочитанных сообщений. ...иначе мы рассердимся / ...altrimenti ci arrabbiamo! [боевик, комедия, 1974] BDRip-AVC, Dvo

salma3

17 | 3

2.76 ГБ

В этой теме нет новых непрочитанных сообщений. Нехорошая мамаша / Скверная мама / Big Bad Mama [боевик, драма, комедия, 1974] BDRip 1080p, Avo

salma3

17 | 2

7.74 ГБ


Начать новую тему Ответить на тему  [ 1 сообщение ] 




Для Мосгорсуда, Роскомнадзора и рекламодателей:: mosgorsud-torrent[собачка]yandex.ru