Торрент файл
скачать торрент магнет ссылка Добавлен: 16 фев 2017, 14:06
Размер: 2.06 ГБ
Сидеров: 528
Личеров: 98
Автор

СообщениеДобавлено: 16 фев 2017, 14:06 

Не в сети
Дата регистрации:
28 сен 2016, 18:10
Спасибо: 211 / 0
Сообщения: 1999
Информация о фильме
Название: Союзники
Оригинальное название: Allied
Год выпуска: 2016
Жанр: Боевик, триллер, драма, мелодрама, военный
Режиссер: Роберт Земекис
В ролях: Брэд Питт, Марион Котийяр, Лиззи Каплан, Аугуст Диль, Шарлотта Хоуп, Рэффи Кэссиди, Мэттью Гуд, Дэниэл Беттс, Саймон МакБерни, Джаред Харрис
О фильме: 1942 год. Идет Вторая Мировая война. Разведчик Макс Ватан (Брэд Питт) отправляется на операцию в подчиненный себе нацистами Марокко, жаркую Касабланку в Северной Африке. Там он встречает и работает вместе с участницей сопротивления француженкой Марианн Бежур (Марион Котийяр). Между ними почти сразу же пробегает искра. Их чувствам суждено подвергнуться тысяче испытаний, главным из которых станет испытание правдой... Во что бы то ни стало, разведчику придется выяснить самый главный вопрос в своей жизни...

Страна: США, Великобритания
Студия: GK Films, Huahua Film & Media Culture, ImageMovers, Paramount Pictures
Продолжительность: 02:04:48
Перевод: Любительский (многоголосый, закадровый) | Студия "Paradox" & Omskbird records
Файл
Качество: HDRip (AVC)
Видео: MPEG-4 AVC, 1720 Кбит/с, 1024x428
Аудио: Русский (AC3, 2 ch, 192 Кбит/с), английский (AC3, 6 ch, 448 Кбит/с)
Субтитры: Английские
General
Unique ID : 212129727399481030511659366702192573495 (0x9F96B30C7D817F4989FABF3FBD44BC37)
Complete name : D:Allied.2016.P.HDRip.AVC.ExKinoRay.mkv
Format : Matroska
Format version : Version 2
File size : 2.06 GiB
Duration : 2 h 4 min
Overall bit rate : 2 362 kb/s
Movie name : Allied 2016 from ExKinoRay
Encoded date : UTC 2017-02-15 16:19:47
Writing application : mkvmerge v5.8.0 ('No Sleep / Pillow') built on Sep 2 2012 15:37:04
Writing library : libebml v1.2.3 + libmatroska v1.3.0
Video
ID : 1
Format : AVC
Format/Info : Advanced Video Codec
Format profile : High@L4.1
Format settings, CABAC : Yes
Format settings, ReFrames : 12 frames
Codec ID : V_MPEG4/ISO/AVC
Duration : 2 h 4 min
Bit rate : 1 720 kb/s
Width : 1 024 pixels
Height : 428 pixels
Display aspect ratio : 2.40:1
Frame rate mode : Constant
Frame rate : 23.976 (24000/1001) FPS
Color space : YUV
Chroma subsampling : 4:2:0
Bit depth : 8 bits
Scan type : Progressive
Bits/(Pixel*Frame) : 0.164
Stream size : 1.46 GiB (71%)
Title : Enigma
Writing library : x264 core 144 r2525 40bb568
Encoding settings : cabac=1 / ref=12 / deblock=1:-2:-2 / analyse=0x3:0x113 / me=umh / subme=10 / psy=1 / psy_rd=1.05:0.08 / mixed_ref=1 / me_range=32 / chroma_me=1 / trellis=2 / 8x8dct=1 / cqm=0 / deadzone=21,11 / fast_pskip=1 / chroma_qp_offset=-3 / threads=12 / lookahead_threads=3 / sliced_threads=0 / nr=0 / decimate=1 / interlaced=0 / bluray_compat=0 / constrained_intra=0 / bframes=10 / b_pyramid=2 / b_adapt=2 / b_bias=0 / direct=3 / weightb=1 / open_gop=0 / weightp=2 / keyint=240 / keyint_min=23 / scenecut=40 / intra_refresh=0 / rc_lookahead=40 / rc=2pass / mbtree=0 / bitrate=1720 / ratetol=1.0 / qcomp=0.60 / qpmin=0 / qpmax=51 / qpstep=4 / cplxblur=20.0 / qblur=0.5 / vbv_maxrate=50000 / vbv_bufsize=62500 / nal_hrd=none / filler=0 / ip_ratio=1.40 / pb_ratio=1.30 / aq=1:1.00
Language : English
Default : Yes
Forced : No
Color range : Limited
Color primaries : BT.709
Transfer characteristics : BT.709
Matrix coefficients : BT.709
Audio #1
ID : 2
Format : AC-3
Format/Info : Audio Coding 3
Mode extension : CM (complete main)
Format settings, Endianness : Big
Codec ID : A_AC3
Duration : 2 h 4 min
Bit rate mode : Constant
Bit rate : 192 kb/s
Channel(s) : 2 channels
Channel positions : Front: L R
Sampling rate : 48.0 kHz
Frame rate : 31.250 FPS (1536 spf)
Bit depth : 16 bits
Compression mode : Lossy
Stream size : 171 MiB (8%)
Title : MVO
Language : Russian
Default : Yes
Forced : No
Audio #2
ID : 3
Format : AC-3
Format/Info : Audio Coding 3
Mode extension : CM (complete main)
Format settings, Endianness : Big
Codec ID : A_AC3
Duration : 2 h 4 min
Bit rate mode : Constant
Bit rate : 448 kb/s
Channel(s) : 6 channels
Channel positions : Front: L C R, Side: L R, LFE
Sampling rate : 48.0 kHz
Frame rate : 31.250 FPS (1536 spf)
Bit depth : 16 bits
Compression mode : Lossy
Stream size : 399 MiB (19%)
Language : English
Default : No
Forced : No
Text #1
ID : 4
Format : UTF-8
Codec ID : S_TEXT/UTF8
Codec ID/Info : UTF-8 Plain Text
Title : Forced
Language : English
Default : No
Forced : No
Text #2
ID : 5
Format : UTF-8
Codec ID : S_TEXT/UTF8
Codec ID/Info : UTF-8 Plain Text
Title : Full
Language : English
Default : No
Forced : No
Menu
00:00:00.000 : en:00:00:00.000
00:05:38.088 : en:00:05:38.088
00:16:39.749 : en:00:16:39.749
00:24:31.428 : en:00:24:31.428
00:33:52.280 : en:00:33:52.280
00:43:07.543 : en:00:43:07.543
00:49:14.118 : en:00:49:14.118
01:01:39.321 : en:01:01:39.321
01:09:36.339 : en:01:09:36.339
01:16:44.016 : en:01:16:44.016
01:26:14.961 : en:01:26:14.961
01:31:53.466 : en:01:31:53.466
01:40:12.173 : en:01:40:12.173
01:47:25.105 : en:01:47:25.105
01:56:35.614 : en:01:56:35.614




Релиз от:
Автор релиза:




реклама партнёра


Вернуться к началу
 Профиль Отправить личное сообщение  
 
   Похожие торренты   Автор   Торрент   Размер 
В этой теме нет новых непрочитанных сообщений. Союзники / Allied (Боевик, триллер, драма, мелодрама, военный, 2016) BDRemux 1080p от ExKinoRay | L

marya111

165 | 90

28.5 ГБ

В этой теме нет новых непрочитанных сообщений. Союзники / Allied (Боевик, триллер, драма, мелодрама, военный, 2016) BDRip 720p от ExKinoRay | L

marya111

2720 | 840

5.26 ГБ

В этой теме нет новых непрочитанных сообщений. Союзники / Allied (Боевик, триллер, драма, мелодрама, военный, 2016) BDRip-AVC от ExKinoRay | iTunes

marya111

266 | 30

1.46 ГБ

В этой теме нет новых непрочитанных сообщений. Союзники / Allied (боевик, триллер, драма, мелодрама, военный, 2016) HDRip от Scarabey | L

marya111

495 | 122

747.75 МБ

В этой теме нет новых непрочитанных сообщений. Союзники / Allied [боевик, триллер, драма, мелодрама, военный, 2016] HDRip, Dub+Sub [Лицензия]

salma3

1528 | 543

1.46 ГБ

В этой теме нет новых непрочитанных сообщений. Союзники / Allied (боевик, триллер, драма, мелодрама, военный, 2016) HDRip от Scarabey | L

marya111

532 | 82

1.45 ГБ

В этой теме нет новых непрочитанных сообщений. Союзники / Allied [боевик, триллер, драма, мелодрама, военный, 2016] BDRip-AVC, Dub+Sub [Лицензия]

salma3

671 | 57

2.2 ГБ


Начать новую тему Ответить на тему  [ 1 сообщение ] 




Для Мосгорсуда, Роскомнадзора и рекламодателей:: mosgorsud-torrent[собачка]yandex.ru