Торрент файл
скачать торрент магнет ссылка Добавлен: 14 фев 2017, 21:51
Размер: 725.53 МБ
Сидеров: 85
Личеров: 21
Статус: (salma3)
Автор

СообщениеДобавлено: 14 фев 2017, 21:51 

Не в сети
Супермодератор
Аватара пользователя
Дата регистрации:
15 фев 2012, 16:44
Возраст: 28
Спасибо: 7163 / 2147
Сообщения: 61885
Год выпуска: 2013
Жанр: триллер
Режиссер: Томас Фароне

В ролях: Энтони Майкл Холл, Джэми Харольд, Тони Данца, Фрэнк Уэйли, Федерико Кастеллуччо, Элизабет Рём, Лео Бёрместер, Лили Рэйб, Стив Кирбус, Кент Мастерс Кинг

Описание: Захватывающий криминальный триллер с элементами черной комедии об одном бизнесмене, жизнь которого меняется, когда пропадает его прораб, незадолго до того, как он захотел уволить плохого парня.



Страна: США
Продолжительность: 01:21:50
Перевод: Авторский (одноголосый)

Формат: HDRip-AVC
Видео: 1280x564 (2.40:1), 23.976 fps, AVC (H.264), ~ 1049 Кbps, bit/pixel 0.061
Аудио: 44.100 kHz, MPEG Layer 3, 2 ch, ~192.00 kbps avg
Доп. информация: Большой ненорматив.



Format : Matroska
Format version : Version 4 / Version 2
File size : 726 MiB
Duration : 1h 21mn
Overall bit rate : 1 239 Kbps
Movie name : Aftermath.2013.720p.WEB-DL.650MB.MkvCage
Encoded date : UTC 2017-02-14 15:49:48
Writing application : mkvmerge v8.3.0 ('Over the Horizon') 64bit
Writing library : libebml v1.3.1 + libmatroska v1.4.2
DURATION : 01:21:50.628000000
NUMBER_OF_FRAMES : 187985
NUMBER_OF_BYTES : 117855086
_STATISTICS_WRITING_APP : mkvmerge v8.3.0 ('Over the Horizon') 64bit
_STATISTICS_WRITING_DATE_UTC : 2017-02-14 15:49:48
_STATISTICS_TAGS : BPS DURATION NUMBER_OF_FRAMES NUMBER_OF_BYTES

Video
ID : 1
Format : AVC
Format/Info : Advanced Video Codec
Format profile :
Format settings, CABAC : Yes
Format settings, ReFrames : 5 frames
Codec ID : V_MPEG4/ISO/AVC
Duration : 1h 21mn
Bit rate : 1 049 Kbps
Width : 1 280 pixels
Height : 564 pixels
Display aspect ratio : 2.25:1
Frame rate mode : Constant
Frame rate : 23.976 fps
Color space : YUV
Chroma subsampling : 4:2:0
Bit depth : 8 bits
Scan type : Progressive
Bits/(Pixel*Frame) : 0.061
Stream size : 599 MiB (83%)
Writing library : x264 core 142 r2431 ac76440
Encoding settings : cabac=1 / ref=5 / deblock=1:-1:-1 / analyse=0x3:0x113 / me=hex / subme=7 / psy=1 / psy_rd=1.00:0.00 / mixed_ref=1 / me_range=16 / chroma_me=1 / trellis=1 / 8x8dct=1 / cqm=0 / deadzone=21,11 / fast_pskip=1 / chroma_qp_offset=-2 / threads=36 / lookahead_threads=4 / sliced_threads=0 / nr=0 / decimate=1 / interlaced=0 / bluray_compat=0 / constrained_intra=0 / bframes=3 / b_pyramid=2 / b_adapt=1 / b_bias=0 / direct=1 / weightb=1 / open_gop=0 / weightp=2 / keyint=240 / keyint_min=23 / scenecut=40 / intra_refresh=0 / rc_lookahead=40 / rc=2pass / mbtree=1 / bitrate=1049 / ratetol=1.0 / qcomp=0.60 / qpmin=10 / qpmax=51 / qpstep=4 / cplxblur=20.0 / qblur=0.5 / vbv_maxrate=62500 / vbv_bufsize=78125 / nal_hrd=none / filler=0 / ip_ratio=1.40 / aq=1:1.00
Default : Yes
Forced : No

Audio
ID : 2
Format : MPEG Audio
Format version : Version 1
Format profile : Layer 3
Codec ID : A_MPEG/L3
Codec ID/Hint : MP3
Duration : 1h 21mn
Bit rate mode : Constant
Bit rate : 192 Kbps
Channel(s) : 2 channels
Sampling rate : 44.1 KHz
Compression mode : Lossy
Stream size : 112 MiB (15%)
Default : Yes
Forced : No


_________________
Проголосуй за трекер Открытый торрент трекер - RUS-MEDIA.ORG

Проголосуй Открытый торрент трекер - RUS-MEDIA.ORG


Вернуться к началу
 Профиль Отправить личное сообщение  
 
   Похожие торренты   Автор   Торрент   Размер 
В этой теме нет новых непрочитанных сообщений. Последствия / Aftermath [триллер, драма, 2017] WEB-DLRip, Dub [звук с TS]

salma3

703 | 128

1.37 ГБ

В этой теме нет новых непрочитанных сообщений. Последствия / Aftermath [триллер, драма, 2017] BDRip, Dub [Лицензия]

salma3

935 | 93

1.46 ГБ

В этой теме нет новых непрочитанных сообщений. Последствия / Aftermath [триллер, драма, 2017] BDRip 1080p, Dub [Лицензия]

salma3

232 | 418

7.85 ГБ

В этой теме нет новых непрочитанных сообщений. Последствия / Aftermath [триллер, драма, 2017] BDRip 720p, Dub [Лицензия]

salma3

816 | 499

3.19 ГБ

В этой теме нет новых непрочитанных сообщений. Последствия / Aftermath [S01] [Фантастика, 2016] WEB-DLRip, Mvo [Кравец]

salma3

399 | 326

5.07 ГБ

В этой теме нет новых непрочитанных сообщений. Последствия / Aftermath [S01] [Фантастика, 2016] WEB-DLRip 1080p, Mvo [Кравец]

salma3

84 | 114

20.22 ГБ

В этой теме нет новых непрочитанных сообщений. Последствия / Aftermath [S01] [Фантастика, 2016] WEB-DLRip 720p, Mvo [Кравец]

salma3

75 | 72

11.79 ГБ


Начать новую тему Ответить на тему  [ 1 сообщение ] 




Для Мосгорсуда, Роскомнадзора и рекламодателей:: mosgorsud-torrent[собачка]yandex.ru
cron