Торрент файл
скачать торрент магнет ссылка Добавлен: 14 фев 2017, 21:26
Размер: 2.6 ГБ
Сидеров: 31
Личеров: 16
Статус: (salma3)
Автор

СообщениеДобавлено: 14 фев 2017, 21:26 

Не в сети
Супермодератор
Аватара пользователя
Дата регистрации:
15 фев 2012, 16:44
Возраст: 28
Спасибо: 7290 / 2147
Сообщения: 70611
Год выхода: 2005
Жанр: ужасы, фантастика, комедия
Режиссер: Эллори Элкайем

В ролях: Эйми-Линн Чедвик, Кори Хардрикт, Джон Киф, Дженни Моллен, Питер Койот, Клаудиу Блеонт, Сорин Кокис, Кэйн, Джордж Думитреску, Мария Динулеску, ...

О фильме: Юлиан и его друзья, которые сумели сбежать из Некрополиса, находятся теперь в колледже. И случайно Юлиан и Дженни обнаруживают канистру с химикатами, спрятанную в секретной комнате. Пробуя протестировать этот химикат, они оставляют это их другу Коди для анализа. К сожалению, Коди быстро находит пользу в этом химикате для себя, чтобы создать новый наркотик для вечеринок и заработать на этом легкие деньги…



Страна: США
Продолжительность: 01:33:50
Перевод: Профессиональный (двухголосый, закадровый)

Кодек: x264
Качество: DVDRip-AVC
Видео: 852x480, 3000 kbps, 23,976 fps
Аудио #1: AC-3, 6 ch, 448 kbps (Rus) - DVO
Аудио #2: AC-3, 6 ch, 448 kbps (Eng)
Субтитры: Английские

За исходник спасибо - Гость

Сравниваем с HDRip-AVC:



Картиночка здесь конечно похуже, но версия более полная.
x264 [info]: frame I:954 Avg QP:15.07 size: 55918
x264 [info]: frame P:33930 Avg QP:18.00 size: 27061
x264 [info]: frame B:102306 Avg QP:19.75 size: 11468
x264 [info]: consecutive B-frames: 2.6% 4.8% 11.5% 29.2% 28.5% 16.4% 3.0% 2.2% 0.4% 1.0% 0.1% 0.1% 0.2%

Общее
Уникальный идентификатор : 221132714402815327736661549941985934718 (0xA65C9C941FE28219AEBB21E1CA207D7E)
Полное имя : Возвращение живых мертвецов 5 Рейв из могилы (Return of the Living...) 2005 DVDRip.mkv
Формат : Matroska
Версия формата : Version 2
Размер файла : 2,60 Гбайт
Продолжительность : 1 ч. 35 м.
Общий поток : 3897 Кбит/сек
Дата кодирования : UTC 2017-02-12 17:19:41
Программа кодирования : mkvmerge v4.0.0 ('The Stars were mine') сборка от Jun 6 2010 16:18:42
Библиотека кодирования : libebml v1.0.0 + libmatroska v1.0.0

Видео
Идентификатор : 1
Формат : AVC
Формат/Информация : Advanced Video Codec
Профиль формата : High@L4.1
Параметр CABAC формата : Да
Параметр ReFrames формата : 12 кадров
Идентификатор кодека : V_MPEG4/ISO/AVC
Продолжительность : 1 ч. 35 м.
Битрейт : 3000 Кбит/сек
Ширина : 852 пикселя
Высота : 480 пикселей
Соотношение сторон : 16:9
Режим частоты кадров : Постоянный
Частота кадров : 23,976 (24000/1001) кадра/сек
Цветовое пространство : YUV
Субдискретизация насыщенности : 4:2:0
Битовая глубина : 8 бит
Тип развёртки : Прогрессивная
Бит/(Пиксели*Кадры) : 0.306
Размер потока : 1,95 Гбайт (75%)
Библиотека кодирования : x264 core 146 r2538 121396c
Настройки программы : cabac=1 / ref=12 / deblock=1:-1:-1 / analyse=0x3:0x133 / me=umh / subme=11 / psy=1 / psy_rd=1.00:0.00 / mixed_ref=1 / me_range=32 / chroma_me=1 / trellis=2 / 8x8dct=1 / cqm=0 / deadzone=21,11 / fast_pskip=0 / chroma_qp_offset=-2 / threads=12 / lookahead_threads=2 / sliced_threads=0 / nr=0 / decimate=0 / interlaced=0 / bluray_compat=0 / constrained_intra=0 / bframes=12 / b_pyramid=2 / b_adapt=2 / b_bias=0 / direct=3 / weightb=1 / open_gop=0 / weightp=2 / keyint=240 / keyint_min=23 / scenecut=40 / intra_refresh=0 / rc=2pass / mbtree=0 / bitrate=3000 / ratetol=1.0 / qcomp=0.60 / qpmin=0 / qpmax=69 / qpstep=4 / cplxblur=20.0 / qblur=0.5 / ip_ratio=1.40 / pb_ratio=1.30 / aq=1:0.80
Язык : English
Default : Нет
Forced : Нет

Аудио #1
Идентификатор : 2
Формат : AC-3
Формат/Информация : Audio Coding 3
Расширение режима : CM (complete main)
Параметр Endianness формата : Big
Идентификатор кодека : A_AC3
Продолжительность : 1 ч. 35 м.
Вид битрейта : Постоянный
Битрейт : 448 Кбит/сек
Каналы : 6 каналов
Расположение каналов : Front: L C R, Side: L R, LFE
Частота : 48,0 КГц
Частота кадров : 31,250 кадров/сек (1536 spf)
Метод сжатия : С потерями
Размер потока : 306 Мбайт (11%)
Заголовок : DVO
Язык : Russian
Default : Нет
Forced : Нет

Аудио #2
Идентификатор : 3
Формат : AC-3
Формат/Информация : Audio Coding 3
Расширение режима : CM (complete main)
Параметр Endianness формата : Big
Идентификатор кодека : A_AC3
Продолжительность : 1 ч. 35 м.
Вид битрейта : Постоянный
Битрейт : 448 Кбит/сек
Каналы : 6 каналов
Расположение каналов : Front: L C R, Side: L R, LFE
Частота : 48,0 КГц
Частота кадров : 31,250 кадров/сек (1536 spf)
Метод сжатия : С потерями
Размер потока : 306 Мбайт (11%)
Язык : English
Default : Нет
Forced : Нет

Текст
Идентификатор : 4
Формат : UTF-8
Идентификатор кодека : S_TEXT/UTF8
Идентификатор кодека/Информация : UTF-8 Plain Text
Язык : English
Default : Нет
Forced : Нет



_________________
Проголосуй за трекер Открытый торрент трекер - RUS-MEDIA.ORG

Проголосуй Открытый торрент трекер - RUS-MEDIA.ORG


Вернуться к началу
 Профиль Отправить личное сообщение  
 
   Похожие торренты   Автор   Торрент   Размер 
В этой теме нет новых непрочитанных сообщений. Возвращение живых мертвецов 5: Рейв из могилы / Return of the Living Dead: Rave to the Grave [ужасы, фантастика, 2005] DVDRip-AVC, Dvo

salma3

98 | 56

744.37 МБ

В этой теме нет новых непрочитанных сообщений. Возвращение живых мертвецов 5: Рейв из могилы / Return of the Living Dead: Rave to the Grave [ужасы, фантастика, комедия, 2005] HDRip-AVC, Dvo

salma3

23 | 16

1.55 ГБ

В этой теме нет новых непрочитанных сообщений. Возвращение живых мертвецов 4: Некрополис / Return of the Living Dead: Necropolis [ужасы, фантастика, 2005] DVDRip-AVC, Avo

salma3

98 | 40

744.91 МБ

В этой теме нет новых непрочитанных сообщений. Возвращение живых мертвецов 2 / Return of the Living Dead: Part II [ужасы, фантастика, комедия, 1988] WEBRip 1080p, Mvo+Avo

salma3

24 | 30

9.62 ГБ

В этой теме нет новых непрочитанных сообщений. Возвращение живых мертвецов 2 / The Return of the Living Dead Part II [ужасы, комедия, 1988] WEB-DL 1080p, Mvo

salma3

20 | 9

3.95 ГБ

В этой теме нет новых непрочитанных сообщений. Возвращение живых мертвецов 2 / The Return of the Living Dead Part II [ужасы, комедия, 1988] WEB-DLRip-AVC, Mvo

salma3

25 | 26

744.3 МБ

В этой теме нет новых непрочитанных сообщений. Возвращение живых мертвецов / The Return of the Living Dead [ужасы, комедия, 1985] BDRip, Avo [Remastered]

salma3

38 | 13

1.45 ГБ


Начать новую тему Ответить на тему  [ 1 сообщение ] 




Для Мосгорсуда, Роскомнадзора и рекламодателей:: mosgorsud-torrent[собачка]yandex.ru
cron