Торрент файл
скачать торрент магнет ссылка Добавлен: 13 фев 2017, 21:56
Размер: 2.68 ГБ
Сидеров: 24
Личеров: 14
Статус: (salma3)
Автор

СообщениеДобавлено: 13 фев 2017, 21:56 

Не в сети
Супермодератор
Аватара пользователя
Дата регистрации:
15 фев 2012, 16:44
Возраст: 28
Спасибо: 6659 / 2146
Сообщения: 46021
Год выхода: 2016
Жанр: Ужасы, триллер
Режиссер: Адам Вингард

В ролях: Джеймс Аллен МакКьюн, Калли Эрнандес, Корбин Рейд, Брэндон Скотт, Уэс Робинсон, Вэлори Керри

О фильме:
После обнаружения загадочной видеозаписи у Джеймса появляется надежда найти свою пропавшую сестру. Вместе с группой друзей он решается отправиться в лес Блэк Хиллз, известный по легенде о ведьме из Блэр. Но никакая самая страшная легенда не сравнится с тем кошмаром, который ждет их в реальности.



Выпущено: США / Lionsgate, Room 101, Snoot Entertainment, Vertigo Entertainment
Продолжительность: 01:29:11
Перевод: Дублированный [Лицензия]

Файл
Качество: BDRip (AVC)
Видео: MPEG-4 AVC, 3422 Кбит/с, 1024x552
Аудио: Русский, английский (AC3, 6 ch, 448 Кбит/с)
Субтитры: Русские, английские

x264 [info]: frame I:598 Avg QP:16.36 size: 55267
x264 [info]: frame P:34449 Avg QP:20.04 size: 27794
x264 [info]: frame B:93258 Avg QP:21.68 size: 13838
x264 [info]: consecutive B-frames: 5.5% 7.4% 14.5% 19.0% 18.4% 16.4% 6.9% 2.7% 1.7% 1.8% 1.0% 1.0% 2.3% 1.5%

General
Unique ID : 181968055447666800286578697329419124461 (0x88E5C5CF116C5414871AF73618367EED)
Complete name : D:Blair.Witch.2016.D.BDRip.AVC.ExKinoRay.mkv
Format : Matroska
Format version : Version 2
File size : 2.68 GiB
Duration : 1 h 29 min
Overall bit rate : 4 308 kb/s
Movie name : Blair Witch 2016 from ExKinoRay
Encoded date : UTC 2017-02-13 13:29:05
Writing application : mkvmerge v7.6.0 ('Garden of Dreams') 32bit built on Feb 11 2015 00:18:47
Writing library : libebml v1.3.1 + libmatroska v1.4.2

Video
ID : 1
Format : AVC
Format/Info : Advanced Video Codec
Format profile : High@L4.1
Format settings, CABAC : Yes
Format settings, ReFrames : 14 frames
Codec ID : V_MPEG4/ISO/AVC
Duration : 1 h 29 min
Bit rate : 3 422 kb/s
Width : 1 024 pixels
Height : 552 pixels
Display aspect ratio : 1.85:1
Frame rate mode : Constant
Frame rate : 23.976 (24000/1001) FPS
Color space : YUV
Chroma subsampling : 4:2:0
Bit depth : 8 bits
Scan type : Progressive
Bits/(Pixel*Frame) : 0.253
Stream size : 2.07 GiB (77%)
Title : Enigma
Writing library : x264 core 144 r2525 40bb568
Encoding settings : cabac=1 / ref=14 / deblock=1:-3:-3 / analyse=0x3:0x113 / me=umh / subme=10 / psy=1 / psy_rd=0.95:0.05 / mixed_ref=1 / me_range=32 / chroma_me=1 / trellis=2 / 8x8dct=1 / cqm=0 / deadzone=21,11 / fast_pskip=1 / chroma_qp_offset=-3 / threads=12 / lookahead_threads=3 / sliced_threads=0 / nr=0 / decimate=1 / interlaced=0 / bluray_compat=0 / constrained_intra=0 / bframes=13 / b_pyramid=2 / b_adapt=2 / b_bias=0 / direct=3 / weightb=1 / open_gop=0 / weightp=2 / keyint=240 / keyint_min=23 / scenecut=40 / intra_refresh=0 / rc_lookahead=40 / rc=2pass / mbtree=0 / bitrate=3422 / ratetol=1.0 / qcomp=0.68 / qpmin=0 / qpmax=51 / qpstep=4 / cplxblur=20.0 / qblur=0.5 / vbv_maxrate=50000 / vbv_bufsize=62500 / nal_hrd=none / filler=0 / ip_ratio=1.40 / pb_ratio=1.30 / aq=3:1.00
Language : English
Default : Yes
Forced : No
Color range : Limited
Color primaries : BT.709
Transfer characteristics : BT.709
Matrix coefficients : BT.709

Audio #1
ID : 2
Format : AC-3
Format/Info : Audio Coding 3
Mode extension : CM (complete main)
Format settings, Endianness : Big
Codec ID : A_AC3
Duration : 1 h 29 min
Bit rate mode : Constant
Bit rate : 448 kb/s
Channel(s) : 6 channels
Channel positions : Front: L C R, Side: L R, LFE
Sampling rate : 48.0 kHz
Frame rate : 31.250 FPS (1536 spf)
Bit depth : 16 bits
Compression mode : Lossy
Stream size : 286 MiB (10%)
Title : Dub (BD RUS)
Language : Russian
Default : Yes
Forced : No

Audio #2
ID : 3
Format : AC-3
Format/Info : Audio Coding 3
Mode extension : CM (complete main)
Format settings, Endianness : Big
Codec ID : A_AC3
Duration : 1 h 29 min
Bit rate mode : Constant
Bit rate : 448 kb/s
Channel(s) : 6 channels
Channel positions : Front: L C R, Side: L R, LFE
Sampling rate : 48.0 kHz
Frame rate : 31.250 FPS (1536 spf)
Bit depth : 16 bits
Compression mode : Lossy
Stream size : 286 MiB (10%)
Language : English
Default : No
Forced : No

Text #1
ID : 4
Format : UTF-8
Codec ID : S_TEXT/UTF8
Codec ID/Info : UTF-8 Plain Text
Title : Full (Matveev)
Language : Russian
Default : No
Forced : No

Text #2
ID : 5
Format : UTF-8
Codec ID : S_TEXT/UTF8
Codec ID/Info : UTF-8 Plain Text
Title : Full
Language : English
Default : No
Forced : No

Text #3
ID : 6
Format : UTF-8
Codec ID : S_TEXT/UTF8
Codec ID/Info : UTF-8 Plain Text
Title : SDH
Language : English
Default : No
Forced : No

Menu
00:00:00.000 : en:Chapter 1
00:05:09.351 : en:Chapter 2
00:08:24.337 : en:Chapter 3
00:10:57.740 : en:Chapter 4
00:16:17.268 : en:Chapter 5
00:21:14.440 : en:Chapter 6
00:29:41.279 : en:Chapter 7
00:35:57.822 : en:Chapter 8
00:40:35.433 : en:Chapter 9
00:46:00.257 : en:Chapter 10
00:52:30.647 : en:Chapter 11
00:59:20.724 : en:Chapter 12
01:04:41.794 : en:Chapter 13
01:09:51.479 : en:Chapter 14
01:15:52.339 : en:Chapter 15
01:20:29.283 : en:Chapter 16


Релиз от: Автор релиза:


_________________
Проголосуй за трекер Открытый торрент трекер - RUS-MEDIA.ORG

Проголосуй Открытый торрент трекер - RUS-MEDIA.ORG



реклама партнёра


Вернуться к началу
 Профиль Отправить личное сообщение  
 
   Похожие торренты   Автор   Торрент   Размер 
В этой теме нет новых непрочитанных сообщений. Ведьма из Блэр: Новая глава / Blair Witch [ужасы, мистика, триллер, 2016] BDRip, Dub [Лицензия]

salma3

84 | 52

745.83 МБ

В этой теме нет новых непрочитанных сообщений. Ведьма из Блэр: Новая глава / Blair Witch [Ужасы, триллер, 2016] BDRip 1080p, Dub+Avo+Sub [Лицензия]

salma3

133 | 71

12.42 ГБ

В этой теме нет новых непрочитанных сообщений. Ведьма из Блэр: Новая глава / Blair Witch [ужасы, мистика, триллер, 2016] BDRip, Dub [Лицензия]

salma3

98 | 99

1.46 ГБ

В этой теме нет новых непрочитанных сообщений. Ведьма из Блэр: Новая глава / Blair Witch [Ужасы, триллер, 2016] BDRip 720p, Dub+Avo+Sub [Лицензия]

salma3

67 | 13

3.26 ГБ

В этой теме нет новых непрочитанных сообщений. Ведьма из Блэр: Новая глава / Blair Witch ( Ужасы, триллер, 2016) BDRip от MegaPeer | A

marya111

2081 | 102

1.46 ГБ

В этой теме нет новых непрочитанных сообщений. Ведьма из Блэр: Новая глава / Blair Witch ( Ужасы, триллер, 2016) BDRip от MegaPeer | iTunes

marya111

2010 | 135

1.42 ГБ

В этой теме нет новых непрочитанных сообщений. Ведьма из Блэр: Новая глава / Blair Witch (Ужасы, триллер, 2016) BDRip 1080p от ExKinoRay | A

marya111

0 | 0

12.96 ГБ


Начать новую тему Ответить на тему  [ 1 сообщение ] 




Для Мосгорсуда, Роскомнадзора и рекламодателей:: mosgorsud-torrent[собачка]yandex.ru