Торрент файл
скачать торрент магнет ссылка Добавлен: 12 фев 2017, 21:38
Размер: 1.46 ГБ
Сидеров: 43
Личеров: 21
Статус: (salma3)
Автор

СообщениеДобавлено: 12 фев 2017, 21:38 

Не в сети
Супермодератор
Аватара пользователя
Дата регистрации:
15 фев 2012, 16:44
Возраст: 28
Спасибо: 7205 / 2147
Сообщения: 65433
Год выпуска: 1992
Жанр: Комедия, Криминал
Режиссер: Джонатан Линн

Актеры: Джо Пеши, Мариса Томей, Ральф Маккио, Митчелл Уайтфилд, Фред Гуинн, Лейн Смит, Остин Пендлтон, Брюс МакГилл, Мори Чайкин, Полин Майерс, Рэйнор Шайне, Джеймс Ребхорн, Лу Уокер, Дж. Дон Фергюсон, Майкл Женевье, Сьюзи Басс, Кенни Джонс, Билл Коутс

Описание:
На первый взгляд адвокат Винсент Гамбини ни чем не отличается от лучших представителей этой славной профессии: вызывает доверие, прекрасно держится и знаком с терминологией. Он берется защищать двух невиновных подростков, обвиненных в убийстве. Но обстоятельства против него: прежде Винни ни разу не брался за уголовные дела. Более того, он никогда не выступал в суде. Кроме этого, он недавно сдал последний экзамен, открывающий ему путь в профессию – с шестого захода. А с другой стороны – Винни действительно не проиграл пока ни одного дела.



Производство: США
Продолжительность: 01:59:18
Перевод: Авторский (одноголосый, закадровый) [А.Гаврилов]

Качество видео: HDRip
Видео: 704x384 (1.83:1), 23.976 fps, XviD build 73 ~1547 kbps avg, 0.24 bit/pixel
Аудио: 48 kHz, AC3 Dolby Digital, 2/0 (L,R) ch, ~192 kbps

Код:
Формат                                   : AVI
Формат/Информация                        : Audio Video Interleave
Размер файла                             : 1,46 Гбайт
Продолжительность                        : 1 ч. 59 м.
Общий поток                              : 1749 Кбит/сек
Программа кодирования                    : VirtualDubMod 1.5.10.3 | www.virtualdub-fr.org || (build 2550/release)
Библиотека кодирования                   : VirtualDubMod build 2550/release

Видео
Идентификатор                            : 0
Формат                                   : MPEG-4 Visual
Профиль формата                          : Advanced Simple@L5
Параметр BVOP формата                    : 1
Параметр QPel формата                    : Нет
Параметр GMC формата                     : Без точки перехода
Параметр матрицы формата                 : Выборочная
Идентификатор кодека                     : XVID
Идентификатор кодека/Подсказка           : XviD
Продолжительность                        : 1 ч. 59 м.
Битрейт                                  : 1547 Кбит/сек
Ширина                                   : 704 пикселя
Высота                                   : 384 пикселя
Соотношение сторон                       : 1,85:1
Частота кадров                           : 23,976 (24000/1001) кадра/сек
Цветовое пространство                    : YUV
Субдискретизация насыщенности            : 4:2:0
Битовая глубина                          : 8 бит
Тип развёртки                            : Прогрессивная
Метод сжатия                             : С потерями
Бит/(Пиксели*Кадры)                      : 0.239
Размер потока                            : 1,29 Гбайт (88%)
Библиотека кодирования                   : XviD 73

Аудио
Идентификатор                            : 1
Формат                                   : AC-3
Формат/Информация                        : Audio Coding 3
Расширение режима                        : CM (complete main)
Параметр Endianness формата              : Big
Идентификатор кодека                     : 2000
Продолжительность                        : 1 ч. 59 м.
Вид битрейта                             : Постоянный
Битрейт                                  : 192 Кбит/сек
Каналы                                   : 2 канала
Расположение каналов                     : Front: L R
Частота                                  : 48,0 КГц
Частота кадров                           : 31,250 кадров/сек (1536 spf)
Битовая глубина                          : 16 бит
Метод сжатия                             : С потерями
Размер потока                            : 164 Мбайт (11%)
Выравнивание                             : Разделение по промежуткам
Продолжительность промежутка             : 42  мс. (1,00 видеокадр)
Время предзагрузки промежутка            : 500  мс.

Релиз от: K.E.N


_________________
Проголосуй за трекер Открытый торрент трекер - RUS-MEDIA.ORG

Проголосуй Открытый торрент трекер - RUS-MEDIA.ORG


Вернуться к началу
 Профиль Отправить личное сообщение  
 
   Похожие торренты   Автор   Торрент   Размер 
В этой теме нет новых непрочитанных сообщений. Мой кузен Винни / My Cousin Vinny [комедия, криминал, 1992] BDRip 1080p, Mvo

salma3

0 | 0

17.5 ГБ

В этой теме нет новых непрочитанных сообщений. Мой кузен Винни / My Cousin Vinny [комедия, криминал, 1992] BDRemux 1080p, Avo+Mvo

salma3

0 | 0

25.66 ГБ

В этой теме нет новых непрочитанных сообщений. Суперполицейские из Майами / Miami Supercops [боевик, комедия, криминал, 1985] HDRip, Avo [Гаврилов]

salma3

69 | 27

1.45 ГБ

В этой теме нет новых непрочитанных сообщений. Быстрее пули / Faster [боевик, триллер, драма, криминал, 2010 ] HDRip, Avo [Гаврилов]

salma3

2 | 4

1.45 ГБ

В этой теме нет новых непрочитанных сообщений. Темный рыцарь / The Dark Knight [Боевик, Фантастика, Триллер, Криминал, 2008] HDRip, Avo [Гаврилов]

salma3

49 | 5

2.18 ГБ

В этой теме нет новых непрочитанных сообщений. Частные уроки / Private Lessons [комедия, 1981] HDRip, Avo [Гаврилов]

salma3

168 | 29

1.45 ГБ

В этой теме нет новых непрочитанных сообщений. Суперполицейские из Майами / Miami Supercops [Боевик, Комедия, Криминал, 1985] BDRip-AVC, Avo [Гаврилов]

salma3

45 | 9

2.18 ГБ


Начать новую тему Ответить на тему  [ 1 сообщение ] 




Для Мосгорсуда, Роскомнадзора и рекламодателей:: mosgorsud-torrent[собачка]yandex.ru
cron