Торрент файл
скачать торрент магнет ссылка Добавлен: 11 фев 2017, 14:15
Размер: 2.89 ГБ
Сидеров: 26
Личеров: 20
Статус: (salma3)
Автор

СообщениеДобавлено: 11 фев 2017, 14:15 

Не в сети
Супермодератор
Аватара пользователя
Дата регистрации:
15 фев 2012, 16:44
Возраст: 28
Спасибо: 6643 / 2146
Сообщения: 45784
Год выхода: 1996
Жанр: драма, комедия
Режиссер: Лиза Крюгер

В ролях: Мэри Кэй Плэйс, Скарлетт Йоханссон, Алекса Палладино, Дин Сильверс, Марлен Хехт, Форрест Сильверс, Тайлер Сильверс, Лиза Кэмпион, Гленн Фицджералд, Новелла Нельсон, ...


О фильме: Мэнни и Ло — две сестры, оставшиеся сиротами. Какое-то время они скитались по стране в маминой машине, чтобы их не забрали в приют, добывая хлеб насущный мелким воровством. Когда старшая забеременела, сестры похитили продавщицу из магазина, решив сделать из нее маму…



Страна: США
Продолжительность: 01:28:01
Перевод: Профессиональный (многоголосный, закадровый) [CP-Digital]

Кодек: x264
Качество: DVDRip-AVC
Видео: 1016x552, 3800 kbps, 25 fps
Аудио #1: AC-3, 6 ch, 448 kbps (Rus) - MVO CP-Digital
Аудио #2: AC-3, 6 ch, 448 kbps (Eng)
Субтитры: Русские, Английские

За исходник спасибо - nikitoskiller77
x264 [info]: frame I:784 Avg QP:13.56 size: 84278
x264 [info]: frame P:30461 Avg QP:15.71 size: 39259
x264 [info]: frame B:100781 Avg QP:18.05 size: 12366
x264 [info]: consecutive B-frames: 1.5% 2.5% 8.5% 37.9% 16.3% 26.5% 3.9% 2.4% 0.2% 0.1% 0.1% 0.0% 0.0%

Общее
Уникальный идентификатор : 220017932613477303150115794646093436276 (0xA585E997C7FAEBB7A717EBEC14429574)
Полное имя : C:TorrentВоришки (Manny & Lo) 1996 DVDRip.mkv
Формат : Matroska
Версия формата : Version 2
Размер файла : 2,89 Гбайт
Продолжительность : 1 ч. 28 м.
Общий поток : 4698 Кбит/сек
Дата кодирования : UTC 2017-02-10 07:09:00
Программа кодирования : mkvmerge v4.0.0 ('The Stars were mine') сборка от Jun 6 2010 16:18:42
Библиотека кодирования : libebml v1.0.0 + libmatroska v1.0.0

Видео
Идентификатор : 1
Формат : AVC
Формат/Информация : Advanced Video Codec
Профиль формата : High@L4.1
Параметр CABAC формата : Да
Параметр ReFrames формата : 12 кадров
Идентификатор кодека : V_MPEG4/ISO/AVC
Продолжительность : 1 ч. 28 м.
Битрейт : 3800 Кбит/сек
Ширина : 1016 пикселей
Высота : 552 пикселя
Соотношение сторон : 1,85:1
Режим частоты кадров : Постоянный
Частота кадров : 25,000 кадров/сек
Цветовое пространство : YUV
Субдискретизация насыщенности : 4:2:0
Битовая глубина : 8 бит
Тип развёртки : Прогрессивная
Бит/(Пиксели*Кадры) : 0.271
Размер потока : 2,28 Гбайт (79%)
Библиотека кодирования : x264 core 146 r2538 121396c
Настройки программы : cabac=1 / ref=12 / deblock=1:-3:-3 / analyse=0x3:0x133 / me=umh / subme=11 / psy=1 / psy_rd=1.00:0.00 / mixed_ref=1 / me_range=32 / chroma_me=1 / trellis=2 / 8x8dct=1 / cqm=0 / deadzone=21,11 / fast_pskip=0 / chroma_qp_offset=-2 / threads=12 / lookahead_threads=2 / sliced_threads=0 / nr=0 / decimate=0 / interlaced=0 / bluray_compat=0 / constrained_intra=0 / bframes=12 / b_pyramid=2 / b_adapt=2 / b_bias=0 / direct=3 / weightb=1 / open_gop=0 / weightp=2 / keyint=250 / keyint_min=25 / scenecut=40 / intra_refresh=0 / rc=2pass / mbtree=0 / bitrate=3800 / ratetol=1.0 / qcomp=0.60 / qpmin=0 / qpmax=69 / qpstep=4 / cplxblur=20.0 / qblur=0.5 / ip_ratio=1.40 / pb_ratio=1.30 / aq=1:0.80
Язык : English
Default : Нет
Forced : Нет

Аудио #1
Идентификатор : 2
Формат : AC-3
Формат/Информация : Audio Coding 3
Расширение режима : CM (complete main)
Параметр Endianness формата : Big
Идентификатор кодека : A_AC3
Продолжительность : 1 ч. 28 м.
Вид битрейта : Постоянный
Битрейт : 448 Кбит/сек
Каналы : 6 каналов
Расположение каналов : Front: L C R, Side: L R, LFE
Частота : 48,0 КГц
Частота кадров : 31,250 кадров/сек (1536 spf)
Метод сжатия : С потерями
Размер потока : 282 Мбайт (10%)
Заголовок : MVO CP-Digital
Язык : Russian
Default : Нет
Forced : Нет

Аудио #2
Идентификатор : 3
Формат : AC-3
Формат/Информация : Audio Coding 3
Расширение режима : CM (complete main)
Параметр Endianness формата : Big
Идентификатор кодека : A_AC3
Продолжительность : 1 ч. 28 м.
Вид битрейта : Постоянный
Битрейт : 448 Кбит/сек
Каналы : 6 каналов
Расположение каналов : Front: L C R, Side: L R, LFE
Частота : 48,0 КГц
Частота кадров : 31,250 кадров/сек (1536 spf)
Метод сжатия : С потерями
Размер потока : 282 Мбайт (10%)
Язык : English
Default : Нет
Forced : Нет

Текст #1
Идентификатор : 4
Формат : UTF-8
Идентификатор кодека : S_TEXT/UTF8
Идентификатор кодека/Информация : UTF-8 Plain Text
Язык : Russian
Default : Нет
Forced : Нет

Текст #2
Идентификатор : 5
Формат : UTF-8
Идентификатор кодека : S_TEXT/UTF8
Идентификатор кодека/Информация : UTF-8 Plain Text
Язык : English
Default : Нет
Forced : Нет



_________________
Проголосуй за трекер Открытый торрент трекер - RUS-MEDIA.ORG

Проголосуй Открытый торрент трекер - RUS-MEDIA.ORG



реклама партнёра


Вернуться к началу
 Профиль Отправить личное сообщение  
 
   Похожие торренты   Автор   Торрент   Размер 
В этой теме нет новых непрочитанных сообщений. Платье / De jurk [триллер, драма, комедия, 1996] DVDRip, Mvo

salma3

14 | 30

1.62 ГБ

В этой теме нет новых непрочитанных сообщений. Шоссе / Freeway [триллер, драма, комедия, криминал, 1996] DVDRip-AVC, Mvo

salma3

42 | 16

2.86 ГБ

В этой теме нет новых непрочитанных сообщений. Ранчо кадиллаков / Cadillac Ranch [боевик, драма, комедия, приключения, 1996] DVDrip, Avo

salma3

120 | 13

1.37 ГБ

В этой теме нет новых непрочитанных сообщений. Индийский наследник английской семьи / English Babu Desi Mem [Драма, мелодрама, комедия, 1996] DVDRip, Mvo

salma3

43 | 4

2.05 ГБ

В этой теме нет новых непрочитанных сообщений. Успехи и неудачи Молл Фландерс / The Fortunes and Misfortunes of Moll Flanders [драма, мелодрама, комедия, 1996] DVDRip, Dvo

salma3

120 | 54

2.92 ГБ

В этой теме нет новых непрочитанных сообщений. Клад / The Grave [триллер, комедия, 1996] DVDRip, Avo

salma3

19 | 3

1.37 ГБ

В этой теме нет новых непрочитанных сообщений. Проект: Альф / Project: Alf [комедия, 1996] DVDRip, Dvo

salma3

21 | 6

1.45 ГБ


Начать новую тему Ответить на тему  [ 1 сообщение ] 




Для Мосгорсуда, Роскомнадзора и рекламодателей:: mosgorsud-torrent[собачка]yandex.ru