Торрент файл
скачать торрент магнет ссылка Добавлен: 11 фев 2017, 13:04
Размер: 1.92 ГБ
Сидеров: 66
Личеров: 21
Статус: (salma3)
Автор

СообщениеДобавлено: 11 фев 2017, 13:04 

Не в сети
Супермодератор
Аватара пользователя
Дата регистрации:
15 фев 2012, 16:44
Возраст: 28
Спасибо: 6640 / 2146
Сообщения: 45613
Год выхода: 1998
Страна: США
Продолжительность: 01:33:37
Жанр: триллер, драма, криминал

Режиссер: Себастьян Гутьеррес
В ролях: Карла Гуджино, Саймон Бейкер, Эмма Томпсон, Алан Рикман, Джил Беллоуз, Тиль Швайгер, Хэл Холбрук, Филип Бейкер Холл, Джои Слотник, Грег Уайз, ...

Перевод:
- Авторский (одноголосый, закадровый) Визгунов Сергей
- Любительский (одноголосый, закадровый) Max Nabokov без цензуры
- Субтитры

О фильме: Героиня фильма Коко со своим любовником Джуниором, промышлявшие мелким мошенничеством, решаются на большое дело. Они собираются похитить владельца компьютерной компании Бена Дайсона и потребовать выкуп 4 миллиона долларов. Они нанимают для похищения технического гения Лизарда и здоровяка Рубена. Но все идет не по задуманному плану. Во время похищения они убивают соседку, которая оказывается женой сенатора…



Кодек: x264
Качество: DVDRip-AVC
Видео: 748x324, 2300 kbps, 25 fps
Аудио #1: AC-3, 2 ch, 192 kbps (Rus) - AVO Визгунов Сергей
Аудио #2: AC-3, 2 ch, 192 kbps (Rus) - VO Max Nabokov
Аудио #3: AC-3, 2 ch, 256 kbps (Eng)
Субтитры: Русские, Английские

За исходник спасибо - hexagen
x264 [info]: frame I:995 Avg QP:11.46 size: 52753
x264 [info]: frame P:32276 Avg QP:13.78 size: 21585
x264 [info]: frame B:107155 Avg QP:15.89 size: 8079
x264 [info]: consecutive B-frames: 2.0% 3.1% 13.3% 19.7% 21.1% 35.0% 4.2% 0.7% 0.3% 0.3% 0.2% 0.0% 0.1%

Общее
Уникальный идентификатор : 221770906240168943379102076620033080333 (0xA6D785DD92A703A299DD16F2AD5DBC0D)
Полное имя : Поцелуй Иуды (Judas Kiss) 1998 DVDRip.mkv
Формат : Matroska
Версия формата : Version 2
Размер файла : 1,92 Гбайт
Продолжительность : 1 ч. 33 м.
Общий поток : 2942 Кбит/сек
Дата кодирования : UTC 2017-02-10 11:25:29
Программа кодирования : mkvmerge v4.0.0 ('The Stars were mine') сборка от Jun 6 2010 16:18:42
Библиотека кодирования : libebml v1.0.0 + libmatroska v1.0.0

Видео
Идентификатор : 1
Формат : AVC
Формат/Информация : Advanced Video Codec
Профиль формата : High@L4.1
Параметр CABAC формата : Да
Параметр ReFrames формата : 12 кадров
Идентификатор кодека : V_MPEG4/ISO/AVC
Продолжительность : 1 ч. 33 м.
Битрейт : 2300 Кбит/сек
Ширина : 748 пикселей
Высота : 324 пикселя
Соотношение сторон : 2,35:1
Режим частоты кадров : Постоянный
Частота кадров : 25,000 кадров/сек
Цветовое пространство : YUV
Субдискретизация насыщенности : 4:2:0
Битовая глубина : 8 бит
Тип развёртки : Прогрессивная
Бит/(Пиксели*Кадры) : 0.380
Размер потока : 1,47 Гбайт (76%)
Библиотека кодирования : x264 core 146 r2538 121396c
Настройки программы : cabac=1 / ref=12 / deblock=1:-1:-1 / analyse=0x3:0x133 / me=umh / subme=11 / psy=1 / psy_rd=1.00:0.00 / mixed_ref=1 / me_range=32 / chroma_me=1 / trellis=2 / 8x8dct=1 / cqm=0 / deadzone=21,11 / fast_pskip=0 / chroma_qp_offset=-2 / threads=12 / lookahead_threads=2 / sliced_threads=0 / nr=0 / decimate=0 / interlaced=0 / bluray_compat=0 / constrained_intra=0 / bframes=12 / b_pyramid=2 / b_adapt=2 / b_bias=0 / direct=3 / weightb=1 / open_gop=0 / weightp=2 / keyint=250 / keyint_min=25 / scenecut=40 / intra_refresh=0 / rc=2pass / mbtree=0 / bitrate=2300 / ratetol=1.0 / qcomp=0.60 / qpmin=0 / qpmax=69 / qpstep=4 / cplxblur=20.0 / qblur=0.5 / ip_ratio=1.40 / pb_ratio=1.30 / aq=3:0.80
Язык : English
Default : Нет
Forced : Нет

Аудио #1
Идентификатор : 2
Формат : AC-3
Формат/Информация : Audio Coding 3
Расширение режима : CM (complete main)
Параметр Endianness формата : Big
Идентификатор кодека : A_AC3
Продолжительность : 1 ч. 33 м.
Вид битрейта : Постоянный
Битрейт : 192 Кбит/сек
Каналы : 2 канала
Расположение каналов : Front: L R
Частота : 48,0 КГц
Частота кадров : 31,250 кадров/сек (1536 spf)
Метод сжатия : С потерями
Размер потока : 129 Мбайт (7%)
Заголовок : AVO Визгунов Сергей
Язык : Russian
Default : Нет
Forced : Нет

Аудио #2
Идентификатор : 3
Формат : AC-3
Формат/Информация : Audio Coding 3
Расширение режима : CM (complete main)
Параметр Endianness формата : Big
Идентификатор кодека : A_AC3
Продолжительность : 1 ч. 33 м.
Вид битрейта : Постоянный
Битрейт : 192 Кбит/сек
Каналы : 2 канала
Расположение каналов : Front: L R
Частота : 48,0 КГц
Частота кадров : 31,250 кадров/сек (1536 spf)
Метод сжатия : С потерями
Размер потока : 129 Мбайт (7%)
Заголовок : VO Max Nabokov
Язык : Russian
Default : Нет
Forced : Нет

Аудио #3
Идентификатор : 4
Формат : AC-3
Формат/Информация : Audio Coding 3
Профиль формата : Dolby Digital
Расширение режима : CM (complete main)
Параметр Endianness формата : Big
Идентификатор кодека : A_AC3
Продолжительность : 1 ч. 33 м.
Вид битрейта : Постоянный
Битрейт : 256 Кбит/сек
Каналы : 2 канала
Расположение каналов : Front: L R
Частота : 48,0 КГц
Частота кадров : 31,250 кадров/сек (1536 spf)
Метод сжатия : С потерями
Размер потока : 171 Мбайт (9%)
Язык : English
Default : Нет
Forced : Нет

Текст #1
Идентификатор : 5
Формат : UTF-8
Идентификатор кодека : S_TEXT/UTF8
Идентификатор кодека/Информация : UTF-8 Plain Text
Язык : Russian
Default : Нет
Forced : Нет

Текст #2
Идентификатор : 6
Формат : UTF-8
Идентификатор кодека : S_TEXT/UTF8
Идентификатор кодека/Информация : UTF-8 Plain Text
Язык : English
Default : Нет
Forced : Нет



_________________
Проголосуй за трекер Открытый торрент трекер - RUS-MEDIA.ORG

Проголосуй Открытый торрент трекер - RUS-MEDIA.ORG



реклама партнёра


Вернуться к началу
 Профиль Отправить личное сообщение  
 
   Похожие торренты   Автор   Торрент   Размер 
В этой теме нет новых непрочитанных сообщений. Поцелуй небеса / Kiss the Sky [драма, мелодрама, 1998] DVDRip, Dvo

salma3

70 | 9

1.47 ГБ

В этой теме нет новых непрочитанных сообщений. Поцелуй или убей / Kiss or Kill [триллер, драма, криминал, 1997] DVDRip, Dvo

salma3

16 | 4

1.46 ГБ

В этой теме нет новых непрочитанных сообщений. Поцелуй перед смертью / A Kiss Before Dying [триллер, криминал, детектив, 1991] DVDRip, Dvo

salma3

50 | 9

1.46 ГБ

В этой теме нет новых непрочитанных сообщений. Поцелуй / The Kiss [ужасы, фэнтези, триллер, драма, 1988] DVDRip-AVC, Avo

salma3

33 | 10

1.49 ГБ

В этой теме нет новых непрочитанных сообщений. Юные Титаны: Контракт Иуды / Teen Titans: The Judas Contract [мультфильм, фантастика, фэнтези, 2017] BDRemux 1080p, Mvo

salma3

141 | 46

12.44 ГБ

В этой теме нет новых непрочитанных сообщений. Долгий поцелуй на ночь / The Long Kiss Goodnight [Боевик, триллер, драма, 1996] HDRip-AVC, Mvo

salma3

81 | 9

742.71 МБ

В этой теме нет новых непрочитанных сообщений. Поцелуй проклятой / Kiss of the Damned [драма, ужасы, триллер, мелодрама, 2012] BDRip 720p, Mvo

salma3

17 | 7

4.45 ГБ


Начать новую тему Ответить на тему  [ 1 сообщение ] 




Для Мосгорсуда, Роскомнадзора и рекламодателей:: mosgorsud-torrent[собачка]yandex.ru