Торрент файл
скачать торрент магнет ссылка Добавлен: 10 фев 2017, 15:08
Размер: 1.47 ГБ
Сидеров: 81
Личеров: 36
Статус: (salma3)
Автор

СообщениеДобавлено: 10 фев 2017, 15:08 

Не в сети
Супермодератор
Аватара пользователя
Дата регистрации:
15 фев 2012, 16:44
Возраст: 28
Спасибо: 6642 / 2146
Сообщения: 45738
Славные парни / The Nice Guys


Перевод: Профессиональный (полное дублирование), субтитры: отсутствуют
Год выпуска: 2016
Жанр: криминал, комедия
Режиссер: Шейн Блэк

В ролях: Райан Гослинг, Ким Бейсингер, Расселл Кроу, Энгаури Райс, Мэтт Бомер, Маргарет Куэлли, Йайа ДаКоста, Кит Дэвид, Бо Напп, Лоис Смит

Описание: Что бывает, когда напарником брутального костолома становится субтильный лопух? Наемный охранник Джексон Хили и частный детектив Холланд Марч вынуждены работать в паре, чтобы распутать плевое дело о пропавшей девушке, которое оборачивается преступлением века. Смогут ли парни разгадать сложный ребус, если у каждого из них — свои, весьма индивидуальные методы…



Страна: США, Великобритания
Продолжительность: 01:55:57
Перевод: Профессиональный (полное дублирование)

Формат: HDRip-AVC
Видео: 1024x432 (2.40:1), 23.976 fps, AVC (H.264), ~1326 kbps, 0.125 bit/pixel
Аудио: 48 kHz, AC3 Dolby Digital, 3/2 (L,C,R,l,r) + LFE ch, ~448 kbps avg

General
Unique ID : 126358135702559014489186877808631757941 (0x5F0FB114FF6D5C8F31749CA7E1AA3C75)
Complete name : C:\Users\Юрик\Desktop\Slavnye.parni.2016_[tfile.ru].mkv
Format : Matroska
Format version : Version 2
File size : 1.47 GiB
Duration : 1h 55mn
Overall bit rate : 1 810 Kbps
Writing application : Lavf55.12.100
Writing library : Lavf55.12.100

Video
ID : 2
Format : AVC
Format/Info : Advanced Video Codec
Format profile :
Format settings, CABAC : Yes
Format settings, ReFrames : 1 frame
Format settings, GOP : M=1, N=12
Codec ID : V_MPEG4/ISO/AVC
Duration : 1h 55mn
Bit rate : 1 326 Kbps
Width : 1 024 pixels
Height : 432 pixels
Display aspect ratio : 2.40:1
Frame rate mode : Constant
Frame rate : 23.976 fps
Color space : YUV
Chroma subsampling : 4:2:0
Bit depth : 8 bits
Scan type : Progressive
Bits/(Pixel*Frame) : 0.125
Stream size : 1.07 GiB (73%)
Default : Yes
Forced : No

Audio
ID : 1
Format : AC-3
Format/Info : Audio Coding 3
Mode extension : CM (complete main)
Format settings, Endianness : Big
Codec ID : A_AC3
Duration : 1h 55mn
Bit rate mode : Constant
Bit rate : 448 Kbps
Channel(s) : 6 channels
Channel positions : Front: L C R, Side: L R, LFE
Sampling rate : 48.0 KHz
Bit depth : 32 bits
Compression mode : Lossy
Stream size : 372 MiB (25%)
Default : Yes
Forced : No




_________________
Проголосуй за трекер Открытый торрент трекер - RUS-MEDIA.ORG

Проголосуй Открытый торрент трекер - RUS-MEDIA.ORG



реклама партнёра


Вернуться к началу
 Профиль Отправить личное сообщение  
 
   Похожие торренты   Автор   Торрент   Размер 
В этой теме нет новых непрочитанных сообщений. Славные парни / The Nice Guys (Шейн Блэк / Shane Black) [2016, США, криминал, комедия, HDRip] Dub (iTunes)

Alfredovich

23 | 7

2.5 ГБ

В этой теме нет новых непрочитанных сообщений. Славные парни / The Nice Guys [криминал, комедия, 2016] BDRip, Dub [лицензия]

salma3

474 | 103

2.18 ГБ

В этой теме нет новых непрочитанных сообщений. Славные парни / The Nice Guys [криминал, комедия, 2016] BDRip 720p, Dub [Лицензия]

salma3

769 | 50

5.56 ГБ

В этой теме нет новых непрочитанных сообщений. Славные парни / The Nice Guys [Криминал, комедия, 2016] BDRip 1080p, Dub+Sub [лицензия]

salma3

186 | 23

12.52 ГБ

В этой теме нет новых непрочитанных сообщений. Славные парни / The Nice Guys [криминал, комедия, боевик, 2016] BDRip, Dvo [Кубик в Кубе]

salma3

614 | 69

1.46 ГБ

В этой теме нет новых непрочитанных сообщений. Славные парни / Goodfellas [драма, криминал, биография, 1990] BDRip, Dub

salma3

152 | 20

1.46 ГБ

В этой теме нет новых непрочитанных сообщений. Славные парни / Goodfellas [драма, криминал, биография, 1990] BDRip 720p, Dub

salma3

11 | 12

4.38 ГБ


Начать новую тему Ответить на тему  [ 1 сообщение ] 




Для Мосгорсуда, Роскомнадзора и рекламодателей:: mosgorsud-torrent[собачка]yandex.ru