Торрент файл
скачать торрент магнет ссылка Добавлен: 10 фев 2017, 12:24
Размер: 1.87 ГБ
Сидеров: 121
Личеров: 40
Статус: (salma3)
Автор

СообщениеДобавлено: 10 фев 2017, 12:24 

Не в сети
Супермодератор
Аватара пользователя
Дата регистрации:
15 фев 2012, 16:44
Возраст: 28
Спасибо: 7205 / 2147
Сообщения: 65334
Год выпуска: 2009
Страна: Великобритания
Жанр: фантастика, драма, детектив

Перевод: Профессиональный многоголосый [СР-Digital] (Лицензия)
Субтитры: русские (Full), английские (Full)
Продолжительность: 01:37:09
Режиссер: Дункан Джонс

В ролях: Сэм Рокуэлл, Кевин Спейси, Доминик МакЭллигот, Кая Скоделарио, Малкольм Стюарт, Робин Чок, Мэтт Берри, Бенедикт Вонг

Описание:
Контракт Сэма подходит к концу: он провел три года на Луне, следя за автоматизированной станцией по добыче редкого газа. Три долгих года в полном одиночестве, если не считать говорящего робота ГЕРТИ, могут изменить любого. За две недели до возвращения на Землю Сэм встречает своего сменщика...



Качество: BDRip-AVC
Формат: MKV
Видео: AVC, 1024x426 (2.40:1), 1855 kbps, 23,976 fps, 0,177 bpp
Аудио №1: русский / AC3 / 5.1 / 48 kHz / 448 kbps / |MVO, СР-Digital|
Аудио №2: английский / AC3 / 5.1 / 48 kHz / 448 kbps /
Навигация по главам: есть

Сэмпл

General
Unique ID : 250514668699206373048749896450042929123 (0xBC775EC523A050FAA74A9A4DEB029FE3)
Complete name : E:Moon.2009.BDRip.AVC.by.R.G.Resident.mkv
Format : Matroska
Format version : Version 4 / Version 2
File size : 1.87 GiB
Duration : 1 h 37 min
Overall bit rate : 2 751 kb/s
Movie name : Луна 2112 / Moon (2009) BDRip-AVC от R.G. Resident
Encoded date : UTC 2017-02-09 07:47:03
Writing application : mkvmerge v9.8.0 ('Kuglblids') 64bit
Writing library : libebml v1.3.4 + libmatroska v1.4.5
Cover : Yes
Attachments : cover.jpg
Video
ID : 1
Format : AVC
Format/Info : Advanced Video Codec
Format profile : High@L4.1
Format settings, CABAC : Yes
Format settings, ReFrames : 9 frames
Codec ID : V_MPEG4/ISO/AVC
Duration : 1 h 37 min
Bit rate : 1 855 kb/s
Width : 1 024 pixels
Height : 426 pixels
Display aspect ratio : 2.40:1
Frame rate mode : Constant
Frame rate : 23.976 FPS
Color space : YUV
Chroma subsampling : 4:2:0
Bit depth : 8 bits
Scan type : Progressive
Bits/(Pixel*Frame) : 0.177
Stream size : 1.26 GiB (67%)
Title : -Lexx-
Writing library : x264 core 146 r2538 121396c
Encoding settings : cabac=1 / ref=9 / deblock=1:-2:-2 / analyse=0x3:0x113 / me=umh / subme=11 / psy=1 / psy_rd=1.00:0.10 / mixed_ref=1 / me_range=48 / chroma_me=1 / trellis=2 / 8x8dct=1 / cqm=0 / deadzone=21,11 / fast_pskip=0 / chroma_qp_offset=-3 / threads=6 / lookahead_threads=2 / sliced_threads=0 / nr=0 / decimate=0 / interlaced=0 / bluray_compat=0 / constrained_intra=0 / bframes=10 / b_pyramid=2 / b_adapt=2 / b_bias=0 / direct=3 / weightb=1 / open_gop=0 / weightp=2 / keyint=240 / keyint_min=23 / scenecut=40 / intra_refresh=0 / rc=2pass / mbtree=0 / bitrate=1855 / ratetol=1.0 / qcomp=0.60 / qpmin=0 / qpmax=69 / qpstep=4 / cplxblur=20.0 / qblur=0.5 / ip_ratio=1.40 / pb_ratio=1.30 / aq=1:1.00
Language : English
Default : Yes
Forced : No
Audio #1
ID : 2
Format : AC-3
Format/Info : Audio Coding 3
Mode extension : CM (complete main)
Format settings, Endianness : Big
Codec ID : A_AC3
Duration : 1 h 37 min
Bit rate mode : Constant
Bit rate : 448 kb/s
Channel(s) : 6 channels
Channel positions : Front: L C R, Side: L R, LFE
Sampling rate : 48.0 kHz
Frame rate : 31.250 FPS (1536 spf)
Compression mode : Lossy
Stream size : 311 MiB (16%)
Title : MVO, СР-Digital
Language : Russian
Default : Yes
Forced : No
Audio #2
ID : 3
Format : AC-3
Format/Info : Audio Coding 3
Mode extension : CM (complete main)
Format settings, Endianness : Big
Codec ID : A_AC3
Duration : 1 h 37 min
Bit rate mode : Constant
Bit rate : 448 kb/s
Channel(s) : 6 channels
Channel positions : Front: L C R, Side: L R, LFE
Sampling rate : 48.0 kHz
Frame rate : 31.250 FPS (1536 spf)
Compression mode : Lossy
Stream size : 311 MiB (16%)
Title : Оригинал
Language : English
Default : No
Forced : No
Text #1
ID : 4
Format : UTF-8
Codec ID : S_TEXT/UTF8
Codec ID/Info : UTF-8 Plain Text
Duration : 1 h 32 min
Bit rate : 71 b/s
Count of elements : 878
Stream size : 48.4 KiB (0%)
Title : Full
Language : Russian
Default : No
Forced : No
Text #2
ID : 5
Format : UTF-8
Codec ID : S_TEXT/UTF8
Codec ID/Info : UTF-8 Plain Text
Duration : 1 h 32 min
Bit rate : 46 b/s
Count of elements : 895
Stream size : 31.7 KiB (0%)
Title : Full
Language : English
Default : No
Forced : No
Menu
00:00:00.000 : en:00:00:00.000
00:05:41.967 : en:00:05:41.967
00:11:05.164 : en:00:11:05.164
00:18:00.955 : en:00:18:00.955
00:22:58.836 : en:00:22:58.836
00:28:47.976 : en:00:28:47.976
00:34:35.907 : en:00:34:35.907
00:42:52.987 : en:00:42:52.987
00:47:28.012 : en:00:47:28.012
00:54:35.939 : en:00:54:35.939
01:01:55.211 : en:01:01:55.211
01:07:38.221 : en:01:07:38.221
01:13:15.182 : en:01:13:15.182
01:16:49.939 : en:01:16:49.939
01:22:32.656 : en:01:22:32.656
01:30:40.143 : en:01:30:40.143

Релиз от: by -Lexx-


_________________
Проголосуй за трекер Открытый торрент трекер - RUS-MEDIA.ORG

Проголосуй Открытый торрент трекер - RUS-MEDIA.ORG


Вернуться к началу
 Профиль Отправить личное сообщение  
 
   Похожие торренты   Автор   Торрент   Размер 
В этой теме нет новых непрочитанных сообщений. Луна 2112 / Moon [фантастика, драма, 2009] BDRip 720p, Mvo

salma3

1 | 1

4.37 ГБ

В этой теме нет новых непрочитанных сообщений. Луна 2112 / Moon [фантастика, драма, 2009] BDRip 1080p, Mvo

salma3

3 | 2

5.76 ГБ

В этой теме нет новых непрочитанных сообщений. Зловещая луна / Bad Moon [ужасы, триллер, драма, детектив, 1996] WEB-DL 720p, Dub+Dvo

salma3

23 | 2

2.65 ГБ

В этой теме нет новых непрочитанных сообщений. Кровавая луна / Bloody Moon [ужасы, 1981] BDRip, Avo

salma3

74 | 26

1.46 ГБ

В этой теме нет новых непрочитанных сообщений. Зловещая луна / Bad Moon [ужасы, фэнтези, боевик, 1996] BDRip-AVC, Dub

salma3

20 | 8

750.87 МБ

В этой теме нет новых непрочитанных сообщений. Фарфоровая луна / China Moon [триллер, мелодрама, криминал, 1991] BDRip, Dvo [НТВ+]

salma3

39 | 8

1.45 ГБ

В этой теме нет новых непрочитанных сообщений. Лживая Луна / Liar's Moon [драма, мелодрама, 1982] DVDRip, Avo

salma3

25 | 9

1.44 ГБ


Начать новую тему Ответить на тему  [ 1 сообщение ] 




Для Мосгорсуда, Роскомнадзора и рекламодателей:: mosgorsud-torrent[собачка]yandex.ru
cron