Торрент файл
скачать торрент магнет ссылка Добавлен: 09 фев 2017, 17:21
Размер: 1.37 ГБ
Сидеров: 174
Личеров: 70
Статус: (salma3)
Автор

СообщениеДобавлено: 09 фев 2017, 17:21 

Не в сети
Супермодератор
Аватара пользователя
Дата регистрации:
15 фев 2012, 16:44
Возраст: 28
Спасибо: 6667 / 2146
Сообщения: 46100
Год выпуска: 2016
Жанр: драма, военный, история
Режиссер: Мэл Гибсон

В ролях: Эндрю Гарфилд, Сэм Уортингтон, Тереза Палмер, Люк Брейси, Винс Вон, Хьюго Уивинг, Рэйчел Гриффитс, Натаниэль Бузолич, Ричард Роксбург, Фирэсс Дирани

Описание:
Медик Американской армии времён Второй Мировой войны Дезмонд Досс, который служил во время битвы за Окинаву, отказывается убивать людей и становится первым идейным уклонистом в американской истории, удостоенным Медали Почёта.



Страна: Австралия, США
Продолжительность: 02:19:45
Перевод:Профессиональный (многоголосый, закадровый) [Paradox & Omskbird records]

Формат: HDRip
Видео: 912x382 (2.40:1), 23.976 fps, AVC MPEG-4 (H.264), ~1191 kbps, 0.143 bit/pixel
Аудио: 48 kHz, AC3 Dolby Digital, 2/0 (L,R) ch, ~192 kbps

СЭМПЛ
Format : Matroska
Format version : Version 4 / Version 2
File size : 1.37 GiB
Duration : 2h 19 min
Overall bit rate : 1 411 kb/s
Movie name : По соображениям совести / Hacksaw Ridge (2016) :: AFM ::
Encoded date : UTC 2017-02-09 05:13:19
Writing application : mkvmerge v8.3.0 ('Over the Horizon') 32bit
Writing library : libebml v1.3.1 + libmatroska v1.4.2
Video
ID : 1
Format : AVC
Format/Info : Advanced Video Codec
Format profile :
Format settings, CABAC : Yes
Format settings, ReFrames : 9 frames
Codec ID : V_MPEG4/ISO/AVC
Duration : 2h 19 min
Bit rate : 1 191 kb/s
Width : 912 pixels
Height : 382 pixels
Display aspect ratio : 2.40:1
Frame rate mode : Constant
Frame rate : 23.976 (24000/1001) FPS
Color space : YUV
Chroma subsampling : 4:2:0
Bit depth : 8 bits
Scan type : Progressive
Bits/(Pixel*Frame) : 0.143
Stream size : 1.16 GiB (84%)
Title : HDRip by AFM
Writing library : x264 core 148 r2762+56 6284cf3 t_mod_Custom [8-bit@all X86_64]
Encoding settings : cabac=1 / ref=9 / deblock=1:-2:-1 / analyse=0x3:0x133 / me=umh / subme=10 / psy=1 / fade_compensate=0.00 / psy_rd=1.00:0.00 / mixed_ref=1 / me_range=32 / chroma_me=1 / trellis=2 / 8x8dct=1 / cqm=0 / deadzone=21,11 / fast_pskip=0 / chroma_qp_offset=-2 / threads=6 / lookahead_threads=1 / sliced_threads=0 / nr=0 / decimate=1 / interlaced=0 / bluray_compat=0 / constrained_intra=0 / fgo=0 / bframes=12 / b_pyramid=2 / b_adapt=2 / b_bias=0 / direct=1 / weightb=1 / open_gop=0 / weightp=2 / keyint=240 / keyint_min=23 / scenecut=40 / intra_refresh=0 / rc_lookahead=60 / rc=crf / mbtree=0 / crf=19.4000 / qcomp=0.65 / qpmin=0:0:0 / qpmax=69:69:69 / qpstep=4 / vbv_maxrate=50000 / vbv_bufsize=62500 / crf_max=0.0 / nal_hrd=none / filler=0 / ip_ratio=1.35 / pb_ratio=1.30 / aq=3:0.90 / aq-sensitivity=10.00 / aq-factor=1.00:1.00:1.00 / aq2=0 / aq3=1:[0.30:0.30]:[0.30:0.30]:[0.30:0.30]:[0.30:0.30] / aq3-sensitivity=10.00 / aq3-factor=[1.00:1.00]:[1.00:1.00]:[1.00:1.00] / aq3-boundary=192:64:24 / zones=188370,200424,q=30
Language : English
Default : Yes
Forced : No
Audio
ID : 2
Format : AC-3
Format/Info : Audio Coding 3
Mode extension : CM (complete main)
Format settings, Endianness : Big
Codec ID : A_AC3
Duration : 2h 19 min
Bit rate mode : Constant
Bit rate : 192 kb/s
Channel(s) : 2 channels
Channel positions : Front: L R
Sampling rate : 48.0 kHz
Frame rate : 31.250 FPS (1536 spf)
Compression mode : Lossy
Stream size : 191 MiB (14%)
Title : MVO, AC3 2.0 ~192 kbps
Language : Russian
Default : Yes
Forced : No
Menu
00:00:00.000 : en:Chapter 01
00:09:18.766 : en:Chapter 02
00:18:41.996 : en:Chapter 03
00:26:34.510 : en:Chapter 04
00:33:00.562 : en:Chapter 05
00:40:04.152 : en:Chapter 06
00:50:07.212 : en:Chapter 07
00:57:01.543 : en:Chapter 08
01:04:21.649 : en:Chapter 09
01:17:50.207 : en:Chapter 10
01:23:58.700 : en:Chapter 11
01:31:21.726 : en:Chapter 12
01:39:02.812 : en:Chapter 13
01:46:07.569 : en:Chapter 14
01:59:48.306 : en:Chapter 15
02:07:13.292 : en:Chapter 16





_________________
Проголосуй за трекер Открытый торрент трекер - RUS-MEDIA.ORG

Проголосуй Открытый торрент трекер - RUS-MEDIA.ORG



реклама партнёра


Вернуться к началу
 Профиль Отправить личное сообщение  
 
   Похожие торренты   Автор   Торрент   Размер 
В этой теме нет новых непрочитанных сообщений. По соображениям совести / Hacksaw Ridge (Драма, военный, история, 2016) HDRip-AVC от ExKinoRay | A

marya111

217 | 43

2.53 ГБ

В этой теме нет новых непрочитанных сообщений. По соображениям совести / Hacksaw Ridge [драма, военный, история, 2016] BDRip, Mvo

salma3

840 | 287

2.18 ГБ

В этой теме нет новых непрочитанных сообщений. По соображениям совести / Hacksaw Ridge [драма, военный, история, 2016] BDRip-AVC, Dub+Sub [iTunes]

salma3

292 | 96

1.51 ГБ

В этой теме нет новых непрочитанных сообщений. По соображениям совести / Hacksaw Ridge [драма, военный, история, 2016] BDRip-AVC, Dub+Sub [iTunes]

salma3

98 | 51

2.23 ГБ

В этой теме нет новых непрочитанных сообщений. По соображениям совести / Hacksaw Ridge (драма, военный, история, 2016) BDRip 1080p | L, A

marya111

827 | 385

9 ГБ

В этой теме нет новых непрочитанных сообщений. По соображениям совести / Hacksaw Ridge [драма, военный, история, 2016] BDRip, Dub [iTunes]

salma3

103 | 43

2.12 ГБ

В этой теме нет новых непрочитанных сообщений. По соображениям совести / Hacksaw Ridge [драма, военный, история, 2016] BDRip, Dub+Sub [iTunes]

salma3

2478 | 883

1.46 ГБ


Начать новую тему Ответить на тему  [ 1 сообщение ] 




Для Мосгорсуда, Роскомнадзора и рекламодателей:: mosgorsud-torrent[собачка]yandex.ru